2 сезон

iTunes

MVO

1

2 сезон

iTunes

iTunes

1 сезон

RePack

30

Ultimate

ВАЖНО

ИГРА 18+

pack

RePack

MK11
pack

Легкие деньги

RePack

jed

RePack

fifa19

RePack

RDR2

RePack

NEED FOR SPEED™ PAYBACK

4 сезон

9 сезон

Бесстыжие 9 сезон

Все сериалы

все сериалы на PB.wtf

RePack

FAR CRY 5

Anonymous, доброй ночи, мы не успеваем собрать деньги на оплату серверов за декабрь и январь, помогите нам пожалуйста в это трудное время. В качестве благодарности мы отключим Вам всю рекламу на сайте (укажите свой ник в строку Ваше имя)!

×
  
Magnet ссылка

Electric Light Orchestra - The Gold Collection - 1996/ FLAC/ image +.cue/ lossless/ Progressive Rock pb.wtf

Electric Light Orchestra - The Gold Collection - 1996 через торрент pb.wtf

Размер: 443 MB | Добавлен: 4 года 2 мес. назад | Торрент скачан:52 раза
Скачать  

09-11-2016 10:06 Electric Light Orchestra - The Gold Collection - 1996 Скачать торрент  


Electric Light Orchestra - The Gold Collection


Год издания: 1996
Страна: UK
Жанр: Progressive Rock
Продолжительность: 01:08:49
Лейбл издания: EMI Records
Страна-выпуска диска: UK
Номер по каталогу: 7243 8 37162 27
Формат: FLAC
Битрейт аудио: Lossless
Тип рипа: image +.cue
Наличие сканов в содержимом раздачи: да


01.10538 Overture(5:32)
02.Mr. Radio(5:05)
03.All Over The World (Showdown Early Version)(4:07)
04.Look At Me Now(3:18)
05.Manhatten Rumble (49th Street Massacre)(4:23)
06.In Old England Town (Boogle NO2)(6:53)
07.My Woman (Ma Ma Belle Early Version)(3:57)
08.Roll Over Beethoven(6:46)
09.The Battle Of Marston Moor (July 2nd, 1644)(6:04)
10.Queen Of The Hours(3:23)
11.Showdown (Single Version)(4:12)
12.First Movement (Jumping Biz)(3:01)
13.Whisper In The Night(4:49)
14.Momma(7:18)

Exact Audio Copy V0.99 prebeta 4 from 23. January 2008

EAC extraction logfile from 3. November 2011, 18:21

Electric Light Orchestra / The Gold Collection

Used drive : HL-DT-STDVDRAM GE20LU10 Adapter: 2 ID: 0

Read mode : Secure
Utilize accurate stream : Yes
Defeat audio cache : Yes
Make use of C2 pointers : No

Read offset correction : 667
Overread into Lead-In and Lead-Out : No
Fill up missing offset samples with silence : Yes
Delete leading and trailing silent blocks : No
Null samples used in CRC calculations : Yes
Used interface : Native Win32 interface for Win NT & 2000

Used output format : User Defined Encoder
Selected bitrate : 1024 kBit/s
Quality : High
Add ID3 tag : No
Command line compressor : C:\Program Files\FLAC\flac.exe
Additional command line options : -8 -V %s

TOC of the extracted CD

Track | Start | Length | Start sector | End sector
---------------------------------------------------------
1 | 0:00.33 | 5:32.17 | 33 | 24949
2 | 5:32.50 | 5:04.55 | 24950 | 47804
3 | 10:37.30 | 4:06.40 | 47805 | 66294
4 | 14:43.70 | 3:18.15 | 66295 | 81159
5 | 18:02.10 | 4:23.30 | 81160 | 100914
6 | 22:25.40 | 6:53.20 | 100915 | 131909
7 | 29:18.60 | 3:57.13 | 131910 | 149697
8 | 33:15.73 | 6:45.72 | 149698 | 180144
9 | 40:01.70 | 6:04.00 | 180145 | 207444
10 | 46:05.70 | 3:23.35 | 207445 | 222704
11 | 49:29.30 | 4:11.38 | 222705 | 241567
12 | 53:40.68 | 3:01.07 | 241568 | 255149
13 | 56:42.00 | 4:49.05 | 255150 | 276829
14 | 61:31.05 | 7:17.70 | 276830 | 309674

Range status and errors

Selected range

Filename D:\Torrents\Electric Light Orchestra - The Gold Collection (EMI)\Electric Light Orchestra - The Gold Collection.wav

Peak level 100.0 %
Range quality 100.0 %
Test CRC C09E8600
Copy CRC C09E8600
Copy OK

No errors occurred

AccurateRip summary

Track 1 accurately ripped (confidence 38) [273213BF]
Track 2 accurately ripped (confidence 38) [0BD5F086]
Track 3 accurately ripped (confidence 39) [D1C41AF4]
Track 4 accurately ripped (confidence 38) [37DC9F1B]
Track 5 accurately ripped (confidence 38) [80E906B0]
Track 6 accurately ripped (confidence 38) [B3D3476F]
Track 7 accurately ripped (confidence 39) [D4A8E4DE]
Track 8 accurately ripped (confidence 37) [15B69DEF]
Track 9 accurately ripped (confidence 37) [6A9EC8BD]
Track 10 accurately ripped (confidence 37) [F88FBE8A]
Track 11 accurately ripped (confidence 36) [94064CBA]
Track 12 accurately ripped (confidence 38) [E6E318BE]
Track 13 accurately ripped (confidence 38) [FE27C72A]
Track 14 accurately ripped (confidence 39) [0DC3805C]

All tracks accurately ripped

End of status report
REM GENRE "Progressive Rock"
REM DATE 1996
REM DISCID D210210E
REM COMMENT "ExactAudioCopy v0.99pb4"
PERFORMER "Electric Light Orchestra"
TITLE " The Gold Collection"
FILE "Electric Light Orchestra - The Gold Collection.flac" WAVE
TRACK 01 AUDIO
TITLE "10538 OVERTURE"
PERFORMER "Electric Light Orchestra"
INDEX 00 00:00:00
INDEX 01 00:00:33
TRACK 02 AUDIO
TITLE "MR. RADIO"
PERFORMER "Electric Light Orchestra"
INDEX 00 05:31:20
INDEX 01 05:32:50
TRACK 03 AUDIO
TITLE "ALL OVER THE WORLD (SHOWDOWN EARLY VERSION)"
PERFORMER "Electric Light Orchestra"
INDEX 00 10:35:60
INDEX 01 10:37:30
TRACK 04 AUDIO
TITLE "LOOK AT ME NOW"
PERFORMER "Electric Light Orchestra"
INDEX 00 14:43:30
INDEX 01 14:43:70
TRACK 05 AUDIO
TITLE "MANHATTEN RUMBLE (49th STREET MASSACRE)"
PERFORMER "Electric Light Orchestra"
INDEX 00 18:00:33
INDEX 01 18:02:10
TRACK 06 AUDIO
TITLE "IN OLD ENGLAND TOWN (BOOGIE NO2)"
PERFORMER "Electric Light Orchestra"
INDEX 00 22:24:03
INDEX 01 22:25:40
TRACK 07 AUDIO
TITLE "MY WOMAN (MA MA BELLE EARLY VERSION)"
PERFORMER "Electric Light Orchestra"
INDEX 00 29:17:03
INDEX 01 29:18:60
TRACK 08 AUDIO
TITLE "ROLL OVER BEETHOVEN"
PERFORMER "Electric Light Orchestra"
INDEX 00 33:15:25
INDEX 01 33:15:73
TRACK 09 AUDIO
TITLE "THE BATTLE OF MARSTON MOOR (JULY 2nd, 1644)"
PERFORMER "Electric Light Orchestra"
INDEX 00 40:00:05
INDEX 01 40:01:70
TRACK 10 AUDIO
TITLE "QUEEN OF THE HOURS"
PERFORMER "Electric Light Orchestra"
INDEX 00 46:03:70
INDEX 01 46:05:70
TRACK 11 AUDIO
TITLE "SHOWDOWN (SINGLE VERSION)"
PERFORMER "Electric Light Orchestra"
INDEX 00 49:27:20
INDEX 01 49:29:30
TRACK 12 AUDIO
TITLE "FIRST MOVEMENT (JUMPING BIZ)"
PERFORMER "Electric Light Orchestra"
INDEX 00 53:39:23
INDEX 01 53:40:68
TRACK 13 AUDIO
TITLE "WHISPER IN THE NIGHT"
PERFORMER "Electric Light Orchestra"
INDEX 00 56:40:43
INDEX 01 56:42:00
TRACK 14 AUDIO
TITLE "MOMMA"
PERFORMER "Electric Light Orchestra"
INDEX 00 61:28:68
INDEX 01 61:31:05


pb.wtf



Скачать Electric Light Orchestra - The Gold Collection - 1996 через торрент http://i84.fastpic.ru/big/2016/1109/7d/3dd18dadb17db261dd1313e89f92f07d.png Скачать фильм Electric Light Orchestra - The Gold Collection - 1996через торрент бесплантно в хорошем качестве Трэклист 10538 Overture(5:32) Mr. Radio(5:05) All Over The World (Showdown Early Version)(4:07) Look At Me Now(3:18) ... 10 10 2
Торрент: Зарегистрирован [2016-11-09 10:06] · скачан: 52 раз
Статус: √ проверено
Размер: 443 MB
Как cкачать? Как скачать Electric Light Orchestra - The Gold Collection - 1996 через торрент | UTorrent

28-11-2019 20:33  

Отключить всю рекламу на сайте


    Дорогой пользователь! Огромная просьба, поблагодарите релизера, оцените раздачу и оставьте свои комментарий, если Вы скачали Electric Light Orchestra - The Gold Collection - 1996 через торрент бесплатно! Внесите свою лепту в развитие PiratBit!
    Комментировать посты могут только пользователи прошедшие не сложную регистрацию
    Показать сообщения:    

    Electric Light Orchestra - The Gold Collection - 1996 через торрент
    Скачать бесплатно Electric Light Orchestra - The Gold Collection - 1996
    Electric Light Orchestra - The Gold Collection - 1996 скачать торрент
    Electric Light Orchestra - The Gold Collection - 1996 смотреть онлайн
    Cкачать фильм Electric Light Orchestra - The Gold Collection - 1996 бесплатно
    Electric Light Orchestra - The Gold Collection - 1996 скачать торрент в хорошем качестве
    Electric Light Orchestra - The Gold Collection - 1996 смотреть онлайн бесплатно в хорошем качестве


    Вы не можете начинать темы
    Вы не можете отвечать на сообщения
    Вы не можете редактировать свои сообщения
    Вы не можете удалять свои сообщения
    Вы не можете голосовать в опросах
    Вы не можете прикреплять файлы к сообщениям
    Вы можете скачивать файлы