Ссылка на приватное зеркало нашего сайта всего за 1$. Внимание количество ограничено!!!

2 сезон

iTunes

1 сезон

1

iTunes

iTunes

iTunes

1 сезон

RePack

30

ИГРА 18+

pack

ВАЖНО

!!Акция!!

Alien_RageХит недели

RePack

MK11
pack

Забери бонус

RePack

jed

!!Акция!!

Alien_Rage

RePack

fifa19

RePack

Assassins Creed: Odyssey

RePack

NEED FOR SPEED™ PAYBACK

4 сезон

9 сезон

Бесстыжие 9 сезон

Все сериалы

все сериалы на PB.wtf

RePack

FAR CRY 5
  

Единственная забава в городке / The Only Game in Town (Джордж Стивенс) [1970, драма, мелодрама, комедия, BDRip 720p by msltel] MVO pb.wtf

Единственная забава в городке через торрент pb.wtf

Размер: 5.46 GB | Добавлен: 3 года 11 мес. назад | Торрент скачан:7 раз
Скачать  

09-11-2016 11:12 Единственная забава в городке Скачать торрент  

Название: Единственная забава в городке
Оригинальное название: The Only Game in Town
Год выпуска: 1970
Страна: США
Жанр: драма, мелодрама, комедия
Продолжительность: 01:53:17
Перевод: профессиональный многоголосый

Режиссёр: Джордж Стивенс

В ролях: Элизабет Тейлор, Уоррен Битти, Чарльз Брасвелл, Хэнк Генри, Ольга Валери

Описание: Участница танцевально-хоровой группы дама средних лет Фрэн Уокер живёт ожиданием, когда её любовник, наконец, получит развод. Однажды она знакомится в баре с пианистом и заядлым игроком Джо Грэйди и без памяти в него влюбляется. Амбициозный музыкант, мечтающий вырваться из Лас-Вегаса и добиться известности в Нью-Йорке, резко меняет жизнь Фрэн...



Качество: BDRip 720p Сравнение с исходником
Формат: MKV
Видео: MPEG-4 AVC, 6513 Кбит/с, 1280x694, 23,976 кадра/с
Аудио 1: русский, AC3, 192 kbps, 2 ch, 48 kHz [профессиональный многоголосый, Первый канал]
Аудио 2: английский, AC3, 192 kbps, 1 ch, 48 kHz [оригинал]
Имеются неименованные главы/чаптеры.
Общее
Уникальный идентификатор : 250378518932380654620266082283195421616 (0xBC5D26117C7E77779923F3DE81D353B0)
Полное имя : D:\Video\Единственная забава в городке.1970.BDRip.720p by msltel.mkv
Формат : Matroska
Версия формата : Version 4 / Version 2
Размер файла : 5,46 Гбайт
Продолжительность : 1 ч. 53 м.
Общий поток : 6899 Кбит/сек
Название фильма : Rip by msltel
Дата кодирования : UTC 2016-11-09 04:10:34
Программа кодирования : mkvmerge v8.2.0 ('World of Adventure') 64bit
Библиотека кодирования : libebml v1.3.1 + libmatroska v1.4.2

Видео
Идентификатор : 1
Формат : AVC
Формат/Информация : Advanced Video Codec
Профиль формата : High@L4.1
Параметр CABAC формата : Да
Параметр ReFrames формата : 9 кадров
Идентификатор кодека : V_MPEG4/ISO/AVC
Продолжительность : 1 ч. 53 м.
Битрейт : 6513 Кбит/сек
Ширина : 1280 пикселей
Высота : 694 пикселя
Соотношение сторон : 1,85:1
Режим частоты кадров : Постоянный
Частота кадров : 23,976 (24000/1001) кадра/сек
Цветовое пространство : YUV
Субдискретизация насыщенности : 4:2:0
Битовая глубина : 8 бит
Тип развёртки : Прогрессивная
Бит/(Пиксели*Кадры) : 0.306
Размер потока : 5,15 Гбайт (94%)
Библиотека кодирования : x264 core 146 r2538 121396c
Настройки программы : cabac=1 / ref=9 / deblock=1:-3:-3 / analyse=0x3:0x113 / me=umh / subme=10 / psy=1 / psy_rd=1.00:0.15 / mixed_ref=1 / me_range=32 / chroma_me=1 / trellis=2 / 8x8dct=1 / cqm=0 / deadzone=21,11 / fast_pskip=0 / chroma_qp_offset=-3 / threads=6 / lookahead_threads=1 / sliced_threads=0 / nr=0 / decimate=1 / interlaced=0 / bluray_compat=0 / constrained_intra=0 / bframes=12 / b_pyramid=2 / b_adapt=2 / b_bias=0 / direct=1 / weightb=1 / open_gop=0 / weightp=2 / keyint=230 / keyint_min=23 / scenecut=40 / intra_refresh=0 / rc_lookahead=40 / rc=crf / mbtree=0 / crf=20.8 / qcomp=0.60 / qpmin=0 / qpmax=69 / qpstep=4 / vbv_maxrate=40000 / vbv_bufsize=50000 / crf_max=0.0 / nal_hrd=none / filler=0 / ip_ratio=1.40 / pb_ratio=1.30 / aq=1:1.00
Язык : English
Default : Да
Forced : Нет

Аудио #1
Идентификатор : 2
Формат : AC-3
Формат/Информация : Audio Coding 3
Расширение режима : CM (complete main)
Параметр Endianness формата : Big
Идентификатор кодека : A_AC3
Продолжительность : 1 ч. 53 м.
Вид битрейта : Постоянный
Битрейт : 192 Кбит/сек
Каналы : 2 канала
Расположение каналов : Front: L R
Частота : 48,0 КГц
Частота кадров : 31,250 кадров/сек (1536 spf)
Метод сжатия : С потерями
Размер потока : 156 Мбайт (3%)
Заголовок : MVO (Первый канал)
Язык : Russian
Default : Да
Forced : Нет

Аудио #2
Идентификатор : 3
Формат : AC-3
Формат/Информация : Audio Coding 3
Расширение режима : CM (complete main)
Параметр Endianness формата : Big
Идентификатор кодека : A_AC3
Продолжительность : 1 ч. 53 м.
Вид битрейта : Постоянный
Битрейт : 192 Кбит/сек
Каналы : 1 канал
Расположение каналов : Front: C
Частота : 48,0 КГц
Частота кадров : 31,250 кадров/сек (1536 spf)
Метод сжатия : С потерями
Размер потока : 156 Мбайт (3%)
Заголовок : original
Язык : English
Default : Нет
Forced : Нет

Меню
00:00:00.000 : :Chapter 01
00:08:15.161 : :Chapter 02
00:17:43.061 : :Chapter 03
00:22:16.460 : :Chapter 04
00:28:22.701 : :Chapter 05
00:38:49.535 : :Chapter 06
00:45:03.074 : :Chapter 07
00:48:10.846 : :Chapter 08
00:59:41.953 : :Chapter 09
01:10:19.798 : :Chapter 10
01:21:54.075 : :Chapter 11
01:33:46.787 : :Chapter 12
01:53:16.497 : :Chapter 13

МОИ РЕЛИЗЫ
ВКОНТАКТЕ
pb.wtf



Скачать Единственная забава в городке через торрент http://s019.radikal.ru/i628/1611/76/e128839ee961.jpg Скачать фильм Единственная забава в городке через торрент бесплантно в хорошем качестве Описание: Участница танцевально-хоровой группы дама средних лет Фрэн Уокер живёт ожиданием, когда её любовник, наконец, получит развод. ... 10 10 3
Info! Золотая раздача, скачанное не засчитывается.
Торрент: Зарегистрирован [2016-11-09 11:12] · скачан: 7 раз
Статус: √ проверено
Размер: 5.46 GB
Как cкачать? Как скачать Единственная забава в городке через торрент | qTorrent

% Раздел Тема Автор DL S | L
Фильмы [HD 720p, 1080p] (Хороший звук DUB, MVO) [ 16.7 GB ] Единственная забава в городке / The Only Game in Town [1970 BDRip 1080p by msltel] MVO msltel Скачать
1 | 0

28-11-2019 20:33  

Отключить всю рекламу на сайте

    Дорогой пользователь! Огромная просьба, поблагодарите релизера, оцените раздачу и оставьте свои комментарий, если Вы скачали Единственная забава в городке через торрент бесплатно! Внесите свою лепту в развитие PiratBit!
    Комментировать посты могут только пользователи прошедшие не сложную регистрацию
    Показать сообщения:    

    Единственная забава в городке через торрент
    Скачать бесплатно Единственная забава в городке
    Единственная забава в городке скачать торрент
    Единственная забава в городке смотреть онлайн
    Cкачать фильм Единственная забава в городке бесплатно
    Единственная забава в городке скачать торрент в хорошем качестве
    Единственная забава в городке смотреть онлайн бесплатно в хорошем качестве


    Вы не можете начинать темы
    Вы не можете отвечать на сообщения
    Вы не можете редактировать свои сообщения
    Вы не можете удалять свои сообщения
    Вы не можете голосовать в опросах
    Вы не можете прикреплять файлы к сообщениям
    Вы можете скачивать файлы