Всегда рабочее зеркало без VPN и Proxy просто перед .vidak.icu напиши любое слово или цифру, Пример http://90qj.vidak.icu

MVO

MVO

1 сезон

1

1 сезон

iTunes

1 сезон

13

1 сезон

Deluxe

pack

Рекомендуем

Repack

30

ВАЖНО

RePack

MK11

RePack

jed

RePack

fifa19

RePack

RDR2

RePack

NEED FOR SPEED™ PAYBACK

Кинопоиск HD

6 сезон

 Острые козырьки 6 сезон

Все сериалы

все сериалы на PB.wtf

RePack

FAR CRY 5
  
Magnet ссылка

Seven - Shattered - 2016/ FLAC/ image +.cue/ lossless/ Melodic Hard Rock pb.wtf

Seven - Shattered - 2016 через торрент pb.wtf

Размер: 470 MB | Добавлен: 5 лет 9 мес. назад | Торрент скачан:12 раз
Смотреть онлайн Seven - Shattered - 2016 | Скачать    Ребята, помогите собрать деньги на оплату серверов!!!

09-11-2016 12:54 Seven - Shattered - 2016 Скачать торрент  


Seven - Shattered


Год издания: 2016
Страна: UK
Жанр: Melodic Hard Rock
Продолжительность: 00:53:25
Лейбл издания: Rubicon Music
Страна-выпуска диска: Japan
Номер по каталогу: RBNCD-1217
Формат: FLAC
Битрейт аудио: Lossless
Тип рипа: image +.cue
Наличие сканов в содержимом раздачи: да


01.Light Of 1000 Eyes(4:18)
02.A Better Life(4:12)
03.Fight(4:26)
04.Shattered(5:13)
05.Live This Life(4:03)
06.Pieces of You(4:17)
07.Broken Dream(4:44)
08.High Hopes(4:23)
09.I Needed Time(3:29)
10.Taking Over(4:41)
11.Last Illusion(5:32)
12.World Of Make Believe (bonus track)(4:05)

Exact Audio Copy V1.0 beta 3 from 29. August 2011

EAC extraction logfile from 24. September 2016, 21:41

Seven / Shattered

Used drive : SlimtypeDVD A DS8A5SH Adapter: 0 ID: 0

Read mode : Secure
Utilize accurate stream : Yes
Defeat audio cache : Yes
Make use of C2 pointers : No

Read offset correction : 6
Overread into Lead-In and Lead-Out : No
Fill up missing offset samples with silence : Yes
Delete leading and trailing silent blocks : No
Null samples used in CRC calculations : Yes
Used interface : Installed external ASPI interface

Used output format : User Defined Encoder
Selected bitrate : 320 kBit/s
Quality : High
Add ID3 tag : No
Command line compressor : C:\Program Files (x86)\Exact Audio Copy\Flac\flac.exe
Additional command line options : -V -8 -T "Date=%year%" -T "Genre=%genre%" %source%

TOC of the extracted CD

Track | Start | Length | Start sector | End sector
---------------------------------------------------------
1 | 0:00.00 | 4:18.09 | 0 | 19358
2 | 4:18.09 | 4:12.17 | 19359 | 38275
3 | 8:30.26 | 4:26.33 | 38276 | 58258
4 | 12:56.59 | 5:13.31 | 58259 | 81764
5 | 18:10.15 | 4:02.45 | 81765 | 99959
6 | 22:12.60 | 4:16.63 | 99960 | 119222
7 | 26:29.48 | 4:43.44 | 119223 | 140491
8 | 31:13.17 | 4:23.34 | 140492 | 160250
9 | 35:36.51 | 3:29.34 | 160251 | 175959
10 | 39:06.10 | 4:41.26 | 175960 | 197060
11 | 43:47.36 | 5:32.16 | 197061 | 221976
12 | 49:19.52 | 4:05.16 | 221977 | 240367

Range status and errors

Selected range

Filename D:\My Music\Seven - 2016 Shattered\Seven - Shattered.wav

Peak level 98.6 %
Extraction speed 1.8 X
Range quality 100.0 %
Test CRC FA2FED0F
Copy CRC FA2FED0F
Copy OK

No errors occurred

AccurateRip summary

Track 1 not present in database
Track 2 not present in database
Track 3 not present in database
Track 4 not present in database
Track 5 not present in database
Track 6 not present in database
Track 7 not present in database
Track 8 not present in database
Track 9 not present in database
Track 10 not present in database
Track 11 not present in database
Track 12 not present in database

None of the tracks are present in the AccurateRip database

End of status report
REM GENRE AOR
REM DATE 2016
REM DISCID A80C840C
REM COMMENT "ExactAudioCopy v1.0b3"
PERFORMER "Seven"
TITLE "Shattered"
FILE "Seven - Shattered.flac" WAVE
TRACK 01 AUDIO
TITLE "Light Of 1000 Eyes"
PERFORMER "Seven"
INDEX 01 00:00:00
TRACK 02 AUDIO
TITLE "A Better Life"
PERFORMER "Seven"
INDEX 00 04:16:09
INDEX 01 04:18:09
TRACK 03 AUDIO
TITLE "Fight"
PERFORMER "Seven"
INDEX 00 08:28:26
INDEX 01 08:30:26
TRACK 04 AUDIO
TITLE "Shattered"
PERFORMER "Seven"
INDEX 00 12:54:59
INDEX 01 12:56:59
TRACK 05 AUDIO
TITLE "Live This Life"
PERFORMER "Seven"
INDEX 00 18:08:15
INDEX 01 18:10:15
TRACK 06 AUDIO
TITLE "Pieces of You"
PERFORMER "Seven"
INDEX 00 22:10:60
INDEX 01 22:12:60
TRACK 07 AUDIO
TITLE "Broken Dream"
PERFORMER "Seven"
INDEX 00 26:27:48
INDEX 01 26:29:48
TRACK 08 AUDIO
TITLE "High Hopes"
PERFORMER "Seven"
INDEX 00 31:11:17
INDEX 01 31:13:17
TRACK 09 AUDIO
TITLE "I Needed Time"
PERFORMER "Seven"
INDEX 00 35:34:51
INDEX 01 35:36:51
TRACK 10 AUDIO
TITLE "Taking Over"
PERFORMER "Seven"
INDEX 00 39:04:10
INDEX 01 39:06:10
TRACK 11 AUDIO
TITLE "Last Illusion"
PERFORMER "Seven"
INDEX 00 43:45:36
INDEX 01 43:47:36
TRACK 12 AUDIO
TITLE "World Of Make Believe (bonus track)"
PERFORMER "Seven"
INDEX 00 49:17:52
INDEX 01 49:19:52


pb.wtf



Скачать Seven - Shattered - 2016 через торрент http://i82.fastpic.ru/big/2016/1109/00/8f77b648a8eb6ee429016a5a952af000.png Скачать, смотреть онлайн Seven - Shattered - 2016 бесплантно в хорошем качестве Трэклист Light Of 1000 Eyes(4:18) A Better Life(4:12) Fight(4:26) Shattered(5:13) Live This Life(4:03) Pieces of ... 5 10 1
Торрент: Зарегистрирован [2016-11-09 12:54] · скачан: 12 раз
Статус: √ проверено
Размер: 470 MB
Как cкачать? Как скачать Seven - Shattered - 2016 через торрент | UTorrent

28-11-2019 20:33  

Отключить вcю реклaмy на сайте

    Дорогой пользователь! Огромная просьба, поблагодарите релизера, оцените раздачу и оставьте свои комментарий, если Вы скачали Seven - Shattered - 2016 через торрент бесплатно!
    Комментировать посты могут только пользователи прошедшие не сложную регистрацию
    Показать сообщения:    

    Seven - Shattered - 2016 через торрент
    Скачать бесплатно Seven - Shattered - 2016
    Seven - Shattered - 2016 скачать торрент
    Seven - Shattered - 2016 смотреть онлайн
    Cкачать фильм Seven - Shattered - 2016 бесплатно
    Seven - Shattered - 2016 скачать торрент в хорошем качестве
    Seven - Shattered - 2016 смотреть онлайн бесплатно в хорошем качестве


    Вы не можете начинать темы
    Вы не можете отвечать на сообщения
    Вы не можете редактировать свои сообщения
    Вы не можете удалять свои сообщения
    Вы не можете голосовать в опросах
    Вы не можете прикреплять файлы к сообщениям
    Вы можете скачивать файлы