Ссылка на приватное зеркало всего за 1$. Внимание количество ограничено!!!

iTunes

iTunes

iTunes

1

iTunes

iTunes

iTunes

iTunes

iTunes

30
pack

$ от Little Big

ВАЖНО

!!Акция!!

Alien_RageХит недели

RePack

Resident Evil 21

ИГРА 18+

pack

RePack

jed

!!Акция!!

Alien_Rage

RePack

fifa19

RePack

Assassins Creed: Odyssey

RePack

NEED FOR SPEED™ PAYBACK

4 сезон

9 сезон

Бесстыжие 9 сезон

Все сериалы

все сериалы на PB.wtf

RePack

FAR CRY 5
  

Бриджит Джонс 3 / Bridget Jones's Baby (Шэрон Магуайр) [2016, мелодрама, комедия, WEB-DL 1080p] Дубляж - [Лицензия / iTunes] pb.wtf

Бриджит Джонс 3 через торрент pb.wtf

Размер: 4.23 GB | Добавлен: 3 года 7 мес. назад | Торрент скачан:644 раза
Скачать  

10-11-2016 07:03 Бриджит Джонс 3 Скачать торрент  

Бриджит Джонс 3 / Bridget Jones's Baby

Год выпуска: 2016
Страна: Ирландия, Великобритания, Франция, США
Жанр: мелодрама, комедия

Продолжительность: 02:02:39
Перевод: Дубляж - [Лицензия / iTunes]
Режиссер: Шэрон Магуайр
В ролях:

Рене Зеллвегер (Bridget), Колин Фёрт (Mark), Патрик Демпси (Jack), Джемма Джонс (Mum), Джим Бродбент (Dad), Сэлли Филлипс (Shazzer), Джулиан Райнд-Татт (Fergus), Эмма Томпсон (Dr. Rawlings), Ширли Хендерсон (Jude), Бен Уиллбонд (Giles), Пол Бенталл (Minister), Агни Скотт (Camilla)
Описание:
Казалось бы, и карьера - в гору, и квартира - в центре Лондона, но она не была бы Бриджит Джонс, если бы не ее способность оказываться не в то время, не в том месте, не с тем мужчиной. И теперь она понятия не имеет, кто отец ее будущего ребенка: обаятельный миллиардер или известный адвокат. Одним словом, Бриджит Джонс в очень интересном положении.
Рейтинг:

MPAA: R - Лицам до 17 лет обязательно присутствие взрослого
Качество: WEB-DL 1080p
Формат: MKV
Видео: AVC, 1916x798 (2.40:1), 4456 kbps, 23,976 fps, 0,122 bpp
Аудио: русский / AC3 / 5.1 / 48 kHz / 384 kbps / |iTunes|
Навигация по главам: есть
Релиз от:
General
Unique ID : 205674872101004693285923655641247710351 (0x9ABB8A1C96CAAF2E96588C5A84CEFC8F)
Complete name : E:\Torrent\film\Bridget.Jones's.Baby.2016.1080p.WEB-DL.Rus.HDCLUB.mkv
Format : Matroska
Format version : Version 2
File size : 4.23 GiB
Duration : 2 h 2 min
Overall bit rate : 4 938 kb/s
Movie name : Bridget Jones's Baby (2016) - Release for HDCLUB
Encoded date : UTC 2016-11-09 19:26:13
Writing application : mkvmerge v3.4.0 ('Rapunzel') built on May 15 2010 09:38:20
Writing library : libebml v0.8.0 + libmatroska v0.9.0

Video
ID : 1
Format : AVC
Format/Info : Advanced Video Codec
Format profile : High@L4
Format settings, CABAC : Yes
Format settings, ReFrames : 5 frames
Codec ID : V_MPEG4/ISO/AVC
Duration : 2 h 2 min
Bit rate : 4 456 kb/s
Width : 1 916 pixels
Height : 798 pixels
Display aspect ratio : 2.40:1
Frame rate mode : Constant
Frame rate : 23.976 FPS
Color space : YUV
Chroma subsampling : 4:2:0
Bit depth : 8 bits
Scan type : Progressive
Bits/(Pixel*Frame) : 0.122
Stream size : 3.82 GiB (90%)
Title : Bridget Jones's Baby (2016) - Release for HDCLUB
Language : English
Default : Yes
Forced : No
Color range : Limited
Color primaries : BT.709
Transfer characteristics : BT.709
Matrix coefficients : BT.709

Audio
ID : 2
Format : AC-3
Format/Info : Audio Coding 3
Mode extension : CM (complete main)
Format settings, Endianness : Big
Codec ID : A_AC3
Duration : 2 h 2 min
Bit rate mode : Constant
Bit rate : 384 kb/s
Channel(s) : 6 channels
Channel positions : Front: L C R, Side: L R, LFE
Sampling rate : 48.0 kHz
Frame rate : 31.250 FPS (1536 spf)
Compression mode : Lossy
Stream size : 337 MiB (8%)
Title : AC3 5.1 @ 384 kbps - DUB, iTunes
Language : Russian
Default : Yes
Forced : No

Menu
00:00:00.000 : en:1
00:08:50.530 : en:2
00:16:22.565 : en:3
00:24:10.658 : en:4
00:29:55.627 : en:5
00:34:52.298 : en:6
00:41:30.237 : en:7
00:47:43.401 : en:8
00:52:06.455 : en:9
00:57:45.836 : en:10
01:03:39.314 : en:11
01:08:13.880 : en:12
01:13:18.476 : en:13
01:20:49.552 : en:14
01:27:33.998 : en:15
01:37:29.176 : en:16
01:43:19.442 : en:17
01:48:11.567 : en:18
01:51:54.665 : en:19
01:56:08.794 : en:20
pb.wtf



Скачать Бриджит Джонс 3 через торрент http://i6.imageban.ru/out/2016/11/10/19f9b73d9fae15760edc2c34f7d915ff.jpg Скачать фильм Бриджит Джонс 3 через торрент бесплантно в хорошем качестве Описание: Казалось бы, и карьера - в гору, и квартира - в центре Лондона, но она не была бы Бриджит Джонс, если бы не ее способность ... 9.9 10 22
Info! Золотая раздача, скачанное не засчитывается.
Торрент: Зарегистрирован [2016-11-10 07:03] · скачан: 644 раз
Статус: √ проверено
Размер: 4.23 GB
Как cкачать? Как скачать Бриджит Джонс 3 через торрент | qTorrent

28-11-2019 20:33  

Отключить всю рекламу на сайте

21-11-2016 18:29 Бриджит Джонс 3 Скачать торрент  

pb.wtf



    Дорогой пользователь! Огромная просьба, поблагодарите релизера, оцените раздачу и оставьте свои комментарий, если Вы скачали Бриджит Джонс 3 через торрент бесплатно! Внесите свою лепту в развитие PiratBit!
    Комментировать посты могут только пользователи прошедшие не сложную регистрацию
    Показать сообщения:    

    Бриджит Джонс 3 через торрент
    Скачать бесплатно Бриджит Джонс 3
    Бриджит Джонс 3 скачать торрент
    Бриджит Джонс 3 смотреть онлайн
    Cкачать фильм Бриджит Джонс 3 бесплатно
    Бриджит Джонс 3 скачать торрент в хорошем качестве
    Бриджит Джонс 3 смотреть онлайн бесплатно в хорошем качестве


    Вы не можете начинать темы
    Вы не можете отвечать на сообщения
    Вы не можете редактировать свои сообщения
    Вы не можете удалять свои сообщения
    Вы не можете голосовать в опросах
    Вы не можете прикреплять файлы к сообщениям
    Вы можете скачивать файлы