новый адрес
Мега распродажа FORZA HORIZON 4 ULTIMATE+ВСЕ DLC+ОНЛАЙН всего за 499р. 349 руб. (супер цена). Внимание количество ограничено!!!

iTunes

1+1

iTunes

мы

iTunes

1

iTunes

Чернобыль

iTunes

Ральф против интернета

Лицензия

ПШазам

Лицензия

Оно 2

Лицензия

30
pack

ВАЖНО

!!Акция!!

Alien_RageХит недели

RePack

Resident Evil 21

ИГРА 18+

pack

RePack

jed

!!Акция!!

Alien_Rage

RePack

fifa19

RePack

Assassins Creed: Odyssey

RePack

NEED FOR SPEED™ PAYBACK

3 сезон

9 сезон

Бесстыжие 9 сезон

Все сериалы

все сериалы на PB.wtf

RePack

FAR CRY 5
Ребята, катастрофически не хватает 1900р. для оплаты серверов за Октябрь (всвязи с блокировками трафик упал в 3 раза), 1-2р., выручайте.
  

Пленники Барсова ущелья (Юрий Ерзинкян) [1956, CCCP, приключения, DVDRip от AVP Studio] pb.wtf

Пленники Барсова ущелья через торрент pb.wtf

Размер: 743 MB | Добавлен: 3 года назад | Торрент скачан:11 раз
Скачать  

10-11-2016 09:21 Пленники Барсова ущелья Скачать торрент  

Пленники Барсова ущелья
Страна: СССР
Производство: Ереванская киностудия

Жанр: приключения
Год выпуска: 1956
Продолжительность: 00:59:43

Перевод: Не требуется
Cубтитры: нет
Оригинальная аудиодорожка: русский

Режиссер: Юрий Ерзинкян

В ролях:
Роберт Мкртчян, Л. Ордоян, Юрий Хачатрян, Г. Ходжагорян, Араик Мкртумян, Ори Буниатян, Гаруш Хажакян, Ашот Нерсесян...
Полный список актёров

Описание:
Дни летних каникул. Увлечённый чтением книги Арсеньева о смелом охотнике Дерсу Узала, школьник Авдал опаздывает вернуться в кочевье пастухов, откуда его послали за провиантом. Друзья уговаривают Авдала переночевать, обещая проводить его. Утром пятеро ребят, Ашот, Шушик, Авдал, Гагик и Саркис, отправляются в путь. Саркис предлагает идти кратчайшим путём, через Барсово ущелье. Уверения Ашота, что в ущелье нет выхода, бурно отвергаются Саркисом. Друзья вступают на тропу, ведущую к ущелью. Внезапно налетевший буран разрушает мост, по которому ребята только что прошли. Вход в ущелье оказывается заваленным. Под ливнем, без еды и огня пятеро друзей становятся пленниками Барсова ущелья…

Источник: DVD5 R5
Качество видео: DVDRip
Формат видео: AVI

Видео: 704x528 (4:3), 25 fps, XviD ~ 1537 kbps avg, 0.165 bit/pixel
Аудио: 48 kHz, Dolby Digital AC3 2.0, 192 kbps

Раздача от:
Общее
Полное имя : Plenniki.Barsova.ushhelya.1956.DVDRip_[New-team]_by_AVP_Studio.avi
Формат : AVI
Формат/Информация : Audio Video Interleave
Размер файла : 743 Мбайт
Продолжительность : 59 м. 42 с.
Общий поток : 1739 Кбит/сек
Программа кодирования : VirtualDubMod 1.5.10.3 | www.virtualdub-fr.org || (build 2550/release)
Библиотека кодирования : VirtualDubMod build 2550/release

Видео
Идентификатор : 0
Формат : MPEG-4 Visual
Профиль формата : Advanced Simple@L5
Параметр BVOP формата : 1
Параметр QPel формата : Нет
Параметр GMC формата : Без точки перехода
Параметр матрицы формата : Выборочная
Идентификатор кодека : XVID
Идентификатор кодека/Подсказка : XviD
Продолжительность : 59 м. 42 с.
Битрейт : 1537 Кбит/сек
Ширина : 704 пикселя
Высота : 528 пикселей
Соотношение сторон : 4:3
Частота кадров : 25,000 кадров/сек
Цветовое пространство : YUV
Субдискретизация насыщенности : 4:2:0
Битовая глубина : 8 бит
Тип развёртки : Прогрессивная
Метод сжатия : С потерями
Бит/(Пиксели*Кадры) : 0.165
Размер потока : 656 Мбайт (88%)
Библиотека кодирования : XviD 1.2.1 (UTC 2008-12-04)

Аудио
Идентификатор : 1
Формат : AC-3
Формат/Информация : Audio Coding 3
Расширение режима : CM (complete main)
Параметр Endianness формата : Big
Идентификатор кодека : 2000
Продолжительность : 59 м. 42 с.
Вид битрейта : Постоянный
Битрейт : 192 Кбит/сек
Каналы : 2 канала
Расположение каналов : Front: L R
Частота : 48,0 КГц
Частота кадров : 31,250 кадров/сек (1536 spf)
Битовая глубина : 16 бит
Метод сжатия : С потерями
Размер потока : 82,0 Мбайт (11%)
Выравнивание : Разделение по промежуткам
Продолжительность промежутка : 40 мс. (1,00 видеокадр)
Время предзагрузки промежутка : 500 мс
pb.wtf



Скачать Пленники Барсова ущелья через торрент http://s017.radikal.ru/i419/1611/25/356f49f41248.png Скачать фильм Пленники Барсова ущелья через торрент бесплантно в хорошем качестве Описание:Дни летних каникул. Увлечённый чтением книги Арсеньева о смелом охотнике Дерсу Узала, школьник Авдал опаздывает вернуться в ... 10 10 1
Info! Золотая раздача, скачанное не засчитывается.
Торрент: Зарегистрирован [2016-11-10 09:21] · скачан: 11 раз
Статус: √ проверено
Размер: 743 MB
Как cкачать? Как скачать Пленники Барсова ущелья через торрент | qTorrent

% Раздел Тема Автор DL S | L
Кино СССР [ 745 MB ] Пленники Барсова ущелья [1956 CCCP DVDRip-AVC от AVP Studio] AVP Studio Скачать
1 | 0


>> Регистрируемся здесь <<






Отзывы и комментарии о схеме читаем и пишем здесь: ---> Отзывы и комментарии о схеме

Новые благодарочки в телеграм довольных пользователей:
скриншот   скриншот   скриншот   скриншот   скриншот
    Дорогой пользователь! Огромная просьба, поблагодарите релизера, оцените раздачу и оставьте свои комментарий, если Вы скачали Пленники Барсова ущелья через торрент бесплатно! Внесите свою лепту в развитие PiratBit!
    Комментировать посты могут только пользователи прошедшие не сложную регистрацию
    Показать сообщения:    

    Пленники Барсова ущелья через торрент
    Скачать бесплатно Пленники Барсова ущелья
    Пленники Барсова ущелья скачать торрент
    Пленники Барсова ущелья смотреть онлайн
    Cкачать фильм Пленники Барсова ущелья бесплатно
    Пленники Барсова ущелья скачать торрент в хорошем качестве
    Пленники Барсова ущелья смотреть онлайн бесплатно в хорошем качестве


    Вы не можете начинать темы
    Вы не можете отвечать на сообщения
    Вы не можете редактировать свои сообщения
    Вы не можете удалять свои сообщения
    Вы не можете голосовать в опросах
    Вы не можете прикреплять файлы к сообщениям
    Вы можете скачивать файлы