Anonymous, доброе утро, присоединяйтесь к нам в Telegram!, здесь всегда актуальный адрес сайта, оперативная поддержка и многое другое!

>

5.5

iTunes

7.4

iTunes

7.9

iTunes

1

7.7

1 сезон

6.8

iTunes

7.3

1 сезон

13

6.7

1 сезон

8.3

RePack

30

ULTIMATE

pack

9.9

Лицензия

ВАЖНО

ИГРА 18+

pack

7.3

RePack

MK11

7.7

RePack

jed

7.8

RePack

fifa19

8.5

RePack

RDR2

RePack

NEED FOR SPEED™ PAYBACK

4 сезон

9 сезон

Бесстыжие 9 сезон

Все сериалы

все сериалы на PB.wtf

RePack

FAR CRY 5

Anonymous, доброе утро, мы катастрофически не успеваем собрать деньги на оплату серверов, помогите нам пожалуйста 5,10,15р., для нас важна любая помощь . В качестве благодарности мы отключим Вам всю рекламу на сайте (укажите свой ник в строку Ваше имя)!

×
  
Magnet ссылка

Пленники Барсова ущелья (Юрий Ерзинкян) [1956, CCCP, приключения, DVDRip-AVC от AVP Studio] pb.wtf

Пленники Барсова ущелья через торрент pb.wtf

Размер: 745 MB | Добавлен: 4 года 11 мес. назад | Торрент скачан:16 раз
Смотреть онлайн Пленники Барсова ущелья | Скачать    Ребята, помогите собрать деньги на оплату серверов!!!

10-11-2016 09:21 Пленники Барсова ущелья Скачать торрент  

Пленники Барсова ущелья
Страна: СССР
Производство: Ереванская киностудия

Жанр: приключения
Год выпуска: 1956
Продолжительность: 00:59:43

Перевод: Не требуется
Cубтитры: нет
Оригинальная аудиодорожка: русский

Режиссер: Юрий Ерзинкян

В ролях:
Роберт Мкртчян, Л. Ордоян, Юрий Хачатрян, Г. Ходжагорян, Араик Мкртумян, Ори Буниатян, Гаруш Хажакян, Ашот Нерсесян...
Полный список актёров

Описание:
Дни летних каникул. Увлечённый чтением книги Арсеньева о смелом охотнике Дерсу Узала, школьник Авдал опаздывает вернуться в кочевье пастухов, откуда его послали за провиантом. Друзья уговаривают Авдала переночевать, обещая проводить его. Утром пятеро ребят, Ашот, Шушик, Авдал, Гагик и Саркис, отправляются в путь. Саркис предлагает идти кратчайшим путём, через Барсово ущелье. Уверения Ашота, что в ущелье нет выхода, бурно отвергаются Саркисом. Друзья вступают на тропу, ведущую к ущелью. Внезапно налетевший буран разрушает мост, по которому ребята только что прошли. Вход в ущелье оказывается заваленным. Под ливнем, без еды и огня пятеро друзей становятся пленниками Барсова ущелья…

Источник: DVD5 R5
Качество видео: DVDRip-AVC
Формат видео: MKV

Видео: 712->768x576 (4:3), 25 fps, H264 ~ 1550 kbps avg, 0.151 bit/pixel
Аудио: 48 kHz, Dolby Digital AC3 2.0, 192 kbps

Раздача от:
Общее
Полное имя : Plenniki.Barsova.ushhelya.1956.DVDRip-AVC_[New-team]_by_AVP_Studio.mkv
Формат : Matroska
Версия формата : Version 2
Размер файла : 745 Мбайт
Продолжительность : 59 м. 42 с.
Общий поток : 1744 Кбит/сек
Дата кодирования : UTC 2016-11-09 13:44:06
Программа кодирования : mkvmerge v6.1.0 ('Old Devil') built on Mar 4 2013 09:10:42
Библиотека кодирования : libebml v1.3.0 + libmatroska v1.4.0

Видео
Идентификатор : 1
Формат : AVC
Формат/Информация : Advanced Video Codec
Профиль формата : High@L4.1
Параметр CABAC формата : Да
Параметр ReFrames формата : 10 кадров
Идентификатор кодека : V_MPEG4/ISO/AVC
Продолжительность : 59 м. 42 с.
Битрейт : 1550 Кбит/сек
Ширина : 712 пикселей
Высота : 576 пикселей
Соотношение сторон : 4:3
Режим частоты кадров : Постоянный
Частота кадров : 25,000 кадров/сек
Цветовое пространство : YUV
Субдискретизация насыщенности : 4:2:0
Битовая глубина : 8 бит
Тип развёртки : Прогрессивная
Бит/(Пиксели*Кадры) : 0.151
Размер потока : 648 Мбайт (87%)
Библиотека кодирования : x264 core 148 r2597 e86f3a1
Настройки программы : cabac=1 / ref=10 / deblock=1:-2:-1 / analyse=0x3:0x113 / me=umh / subme=10 / psy=1 / psy_rd=1.00:0.00 / mixed_ref=1 / me_range=32 / chroma_me=1 / trellis=2 / 8x8dct=1 / cqm=0 / deadzone=21,11 / fast_pskip=1 / chroma_qp_offset=-2 / threads=6 / lookahead_threads=1 / sliced_threads=0 / nr=0 / decimate=0 / interlaced=0 / bluray_compat=0 / constrained_intra=0 / bframes=8 / b_pyramid=2 / b_adapt=2 / b_bias=0 / direct=3 / weightb=1 / open_gop=0 / weightp=2 / keyint=250 / keyint_min=25 / scenecut=40 / intra_refresh=0 / rc=2pass / mbtree=0 / bitrate=1550 / ratetol=1.0 / qcomp=0.60 / qpmin=0 / qpmax=69 / qpstep=4 / cplxblur=20.0 / qblur=0.5 / ip_ratio=1.40 / pb_ratio=1.30 / aq=1:1.00
Default : Да
Forced : Нет

Аудио
Идентификатор : 2
Формат : AC-3
Формат/Информация : Audio Coding 3
Расширение режима : CM (complete main)
Параметр Endianness формата : Big
Идентификатор кодека : A_AC3
Продолжительность : 59 м. 42 с.
Вид битрейта : Постоянный
Битрейт : 192 Кбит/сек
Каналы : 2 канала
Расположение каналов : Front: L R
Частота : 48,0 КГц
Частота кадров : 31,250 кадров/сек (1536 spf)
Битовая глубина : 16 бит
Метод сжатия : С потерями
Размер потока : 82,0 Мбайт (11%)
Default : Да
Forced : Нет
pb.wtf



Скачать Пленники Барсова ущелья через торрент http://s017.radikal.ru/i419/1611/25/356f49f41248.png Скачать, смотреть онлайн Пленники Барсова ущелья бесплантно в хорошем качестве Описание:Дни летних каникул. Увлечённый чтением книги Арсеньева о смелом охотнике Дерсу Узала, школьник Авдал опаздывает вернуться в ... 10 10 3
Info! Золотая раздача, скачанное не засчитывается.
Торрент: Зарегистрирован [2016-11-10 09:21] · скачан: 16 раз
Статус: √ проверено
Размер: 745 MB
Как cкачать? Как скачать Пленники Барсова ущелья через торрент | UTorrent

% Раздел Тема Автор DL S | L
Кино СССР [ 743 MB ] Пленники Барсова ущелья [1956 CCCP DVDRip от AVP Studio] AVP Studio Скачать
1 | 0

28-11-2019 20:33  

Отключить всю рекламу на сайте

10-11-2016 15:42 Пленники Барсова ущелья Скачать торрент  

Даже не знал что есть фильм по этой повести. В детстве 2 раза читал. Но, чтобы фильм, да еще и на немецком - неожиданно!
P.S. Посмотрел. Книга лучше.pb.wtf



    Дорогой пользователь! Огромная просьба, поблагодарите релизера, оцените раздачу и оставьте свои комментарий, если Вы скачали Пленники Барсова ущелья через торрент бесплатно!
    Комментировать посты могут только пользователи прошедшие не сложную регистрацию
    Показать сообщения:    

    Пленники Барсова ущелья через торрент
    Скачать бесплатно Пленники Барсова ущелья
    Пленники Барсова ущелья скачать торрент
    Пленники Барсова ущелья смотреть онлайн
    Cкачать фильм Пленники Барсова ущелья бесплатно
    Пленники Барсова ущелья скачать торрент в хорошем качестве
    Пленники Барсова ущелья смотреть онлайн бесплатно в хорошем качестве


    Вы не можете начинать темы
    Вы не можете отвечать на сообщения
    Вы не можете редактировать свои сообщения
    Вы не можете удалять свои сообщения
    Вы не можете голосовать в опросах
    Вы не можете прикреплять файлы к сообщениям
    Вы можете скачивать файлы