2 сезон

iTunes

1 сезон

1

iTunes

iTunes

iTunes

1 сезон

RePack

30

ИГРА 18+

pack

ВАЖНО

!!Акция!!

Alien_RageХит недели

RePack

MK11
pack

Забери бонус

RePack

jed

!!Акция!!

Alien_Rage

RePack

fifa19

RePack

Assassins Creed: Odyssey

RePack

NEED FOR SPEED™ PAYBACK

4 сезон

9 сезон

Бесстыжие 9 сезон

Все сериалы

все сериалы на PB.wtf

RePack

FAR CRY 5
  

Демоны 2 / Demoni 2: L'incubo ritorna (Ламберто Бава) [1986, ужасы, BDRip 720p by msltel] MVO, 5 x AVO, VO pb.wtf

Демоны 2 через торрент pb.wtf

Размер: 4.98 GB | Добавлен: 3 года 11 мес. назад | Торрент скачан:58 раз
Скачать  

10-11-2016 09:54 Демоны 2 Скачать торрент  

Название: Демоны 2
Оригинальное название: Demoni 2: L'incubo ritorna
Год выпуска: 1986
Страна: Италия
Жанр: ужасы
Продолжительность: 01:31:05
Перевод: профессиональный многоголосый, авторский, любительский одноголосый

Режиссёр: Ламберто Бава

В ролях: Дэвид Эдвин Найт, Нэнси Брилли, Коралина Катальди-Тассони, Бобби Родс, Азия Ардженто, Вирджиния Брайант, Анита Бартолуччи, Антонио Кантафора, Луиза Пассега, Давид Маротта, Марко Вивио, Мишель Мирабелла, Лоренцо Джоиелли, Лино Салемме, Мария Чиара Сассо, Дарио Казалини, Андреа Гаринеи, Люка Де Нардо, Кэролайн Кристина Ланд, Карен Дженнаро, Марина Лои, Сильвия Роза, Лоренцо Флаэрти, Андреа Спера, Паскаль Персиано, Роберт Чилкотт, Элиана Мильо, Бруно Билотта, Фурио Билотта, Джованна Пини, Стефано Молинари, Ким Рон, Ламберто Бава, Виктор Бирд

Описание: У молодой девушки по имени Салли сегодня вечеринка. Друзья, музыка, выпивка… Но вот в самый разгар веселья, кто-то включает телевизор, по которому идет передача о демонах. Дальше происходит невероятное — демон из фильма проникает в дом Салли сквозь телевизор, и гостям становится не до смеха...



Качество: BDRip 720p
Формат: MKV
Видео: MPEG-4 AVC, 6099 Kбит/с, 1196x720, 23,976 кадра/с
Аудио 1: русский, AC3, 384 kbps, 6 ch, 48 kHz [профессиональный многоголосый, R5]
Аудио 2: русский, AC3, 192 kbps, 2 ch, 48 kHz [авторский, Андрей Гаврилов, вариант 1]
Аудио 3: русский, AC3, 192 kbps, 2 ch, 48 kHz [авторский, Андрей Гаврилов, вариант 2]
Аудио 4: русский, AC3, 192 kbps, 2 ch, 48 kHz [авторский, Андрей Дольский]
Аудио 5: русский, AC3, 192 kbps, 2 ch, 48 kHz [авторский, Юрий Живов]
Аудио 6: русский, AC3, 192 kbps, 2 ch, 48 kHz [авторский, Сергей Зереницын]
Аудио 7: русский, AC3, 192 kbps, 2 ch, 48 kHz [любительский одноголосый]
Аудио 8: итальянский, AC3, 192 kbps, 2 ch, 48 kHz [оригинал]
Субтитры 1: русские
Субтитры 2: английские
Имеются неименованные главы/чаптеры.
Общее
Уникальный идентификатор : 238295304853923415494882213916751248180 (0xB346019E5A0AD6FD8C1FFA997F353B34)
Полное имя : D:\Video\Демоны 2.1986.BDRip.720p by msltel.mkv
Формат : Matroska
Версия формата : Version 4 / Version 2
Размер файла : 4,98 Гбайт
Продолжительность : 1 ч. 31 м.
Общий поток : 7831 Кбит/сек
Название фильма : Rip by msltel
Дата кодирования : UTC 2016-11-10 07:15:27
Программа кодирования : mkvmerge v8.2.0 ('World of Adventure') 64bit
Библиотека кодирования : libebml v1.3.1 + libmatroska v1.4.2

Видео
Идентификатор : 1
Формат : AVC
Формат/Информация : Advanced Video Codec
Профиль формата : High@L4.1
Параметр CABAC формата : Да
Параметр ReFrames формата : 9 кадров
Идентификатор кодека : V_MPEG4/ISO/AVC
Продолжительность : 1 ч. 31 м.
Битрейт : 6099 Кбит/сек
Ширина : 1196 пикселей
Высота : 720 пикселей
Соотношение сторон : 5:3
Режим частоты кадров : Постоянный
Частота кадров : 23,976 (24000/1001) кадра/сек
Цветовое пространство : YUV
Субдискретизация насыщенности : 4:2:0
Битовая глубина : 8 бит
Тип развёртки : Прогрессивная
Бит/(Пиксели*Кадры) : 0.295
Размер потока : 3,88 Гбайт (78%)
Библиотека кодирования : x264 core 146 r2538 121396c
Настройки программы : cabac=1 / ref=9 / deblock=1:-3:-3 / analyse=0x3:0x113 / me=umh / subme=10 / psy=1 / psy_rd=1.00:0.15 / mixed_ref=1 / me_range=32 / chroma_me=1 / trellis=2 / 8x8dct=1 / cqm=0 / deadzone=21,11 / fast_pskip=0 / chroma_qp_offset=-3 / threads=6 / lookahead_threads=1 / sliced_threads=0 / nr=0 / decimate=1 / interlaced=0 / bluray_compat=0 / constrained_intra=0 / bframes=9 / b_pyramid=2 / b_adapt=2 / b_bias=0 / direct=1 / weightb=1 / open_gop=0 / weightp=2 / keyint=230 / keyint_min=23 / scenecut=40 / intra_refresh=0 / rc_lookahead=40 / rc=crf / mbtree=0 / crf=20.4 / qcomp=0.60 / qpmin=0 / qpmax=69 / qpstep=4 / vbv_maxrate=40000 / vbv_bufsize=50000 / crf_max=0.0 / nal_hrd=none / filler=0 / ip_ratio=1.40 / pb_ratio=1.30 / aq=1:1.00
Язык : Italian
Default : Да
Forced : Нет

Аудио #1
Идентификатор : 2
Формат : AC-3
Формат/Информация : Audio Coding 3
Расширение режима : CM (complete main)
Параметр Endianness формата : Big
Идентификатор кодека : A_AC3
Продолжительность : 1 ч. 31 м.
Вид битрейта : Постоянный
Битрейт : 384 Кбит/сек
Каналы : 6 каналов
Расположение каналов : Front: L C R, Side: L R, LFE
Частота : 48,0 КГц
Частота кадров : 31,250 кадров/сек (1536 spf)
Метод сжатия : С потерями
Размер потока : 250 Мбайт (5%)
Заголовок : MVO (R5)
Язык : Russian
Default : Да
Forced : Нет

Аудио #2
Идентификатор : 3
Формат : AC-3
Формат/Информация : Audio Coding 3
Расширение режима : CM (complete main)
Параметр Endianness формата : Big
Идентификатор кодека : A_AC3
Продолжительность : 1 ч. 31 м.
Вид битрейта : Постоянный
Битрейт : 192 Кбит/сек
Каналы : 2 канала
Расположение каналов : Front: L R
Частота : 48,0 КГц
Частота кадров : 31,250 кадров/сек (1536 spf)
Метод сжатия : С потерями
Размер потока : 125 Мбайт (2%)
Заголовок : AVO (Андрей Гаврилов, вариант 1)
Язык : Russian
Default : Нет
Forced : Нет

Аудио #3
Идентификатор : 4
Формат : AC-3
Формат/Информация : Audio Coding 3
Расширение режима : CM (complete main)
Параметр Endianness формата : Big
Идентификатор кодека : A_AC3
Продолжительность : 1 ч. 31 м.
Вид битрейта : Постоянный
Битрейт : 192 Кбит/сек
Каналы : 2 канала
Расположение каналов : Front: L R
Частота : 48,0 КГц
Частота кадров : 31,250 кадров/сек (1536 spf)
Метод сжатия : С потерями
Размер потока : 125 Мбайт (2%)
Заголовок : AVO (Андрей Гаврилов, вариант 2)
Язык : Russian
Default : Нет
Forced : Нет

Аудио #4
Идентификатор : 5
Формат : AC-3
Формат/Информация : Audio Coding 3
Расширение режима : CM (complete main)
Параметр Endianness формата : Big
Идентификатор кодека : A_AC3
Продолжительность : 1 ч. 31 м.
Вид битрейта : Постоянный
Битрейт : 192 Кбит/сек
Каналы : 2 канала
Расположение каналов : Front: L R
Частота : 48,0 КГц
Частота кадров : 31,250 кадров/сек (1536 spf)
Метод сжатия : С потерями
Размер потока : 125 Мбайт (2%)
Заголовок : AVO (Андрей Дольский)
Язык : Russian
Default : Нет
Forced : Нет

Аудио #5
Идентификатор : 6
Формат : AC-3
Формат/Информация : Audio Coding 3
Расширение режима : CM (complete main)
Параметр Endianness формата : Big
Идентификатор кодека : A_AC3
Продолжительность : 1 ч. 31 м.
Вид битрейта : Постоянный
Битрейт : 192 Кбит/сек
Каналы : 2 канала
Расположение каналов : Front: L R
Частота : 48,0 КГц
Частота кадров : 31,250 кадров/сек (1536 spf)
Метод сжатия : С потерями
Размер потока : 125 Мбайт (2%)
Заголовок : AVO (Юрий Живов)
Язык : Russian
Default : Нет
Forced : Нет

Аудио #6
Идентификатор : 7
Формат : AC-3
Формат/Информация : Audio Coding 3
Расширение режима : CM (complete main)
Параметр Endianness формата : Big
Идентификатор кодека : A_AC3
Продолжительность : 1 ч. 31 м.
Вид битрейта : Постоянный
Битрейт : 192 Кбит/сек
Каналы : 2 канала
Расположение каналов : Front: L R
Частота : 48,0 КГц
Частота кадров : 31,250 кадров/сек (1536 spf)
Метод сжатия : С потерями
Размер потока : 125 Мбайт (2%)
Заголовок : AVO (Сергей Зереницын)
Язык : Russian
Default : Нет
Forced : Нет

Аудио #7
Идентификатор : 8
Формат : AC-3
Формат/Информация : Audio Coding 3
Расширение режима : CM (complete main)
Параметр Endianness формата : Big
Идентификатор кодека : A_AC3
Продолжительность : 1 ч. 31 м.
Вид битрейта : Постоянный
Битрейт : 192 Кбит/сек
Каналы : 2 канала
Расположение каналов : Front: L R
Частота : 48,0 КГц
Частота кадров : 31,250 кадров/сек (1536 spf)
Метод сжатия : С потерями
Размер потока : 125 Мбайт (2%)
Заголовок : любительский одноголосый
Язык : Russian
Default : Нет
Forced : Нет

Аудио #8
Идентификатор : 9
Формат : AC-3
Формат/Информация : Audio Coding 3
Расширение режима : CM (complete main)
Параметр Endianness формата : Big
Идентификатор кодека : A_AC3
Продолжительность : 1 ч. 31 м.
Вид битрейта : Постоянный
Битрейт : 192 Кбит/сек
Каналы : 2 канала
Расположение каналов : Front: L R
Частота : 48,0 КГц
Частота кадров : 31,250 кадров/сек (1536 spf)
Метод сжатия : С потерями
Размер потока : 125 Мбайт (2%)
Заголовок : original
Язык : Italian
Default : Нет
Forced : Нет

Текст #1
Идентификатор : 10
Формат : UTF-8
Идентификатор кодека : S_TEXT/UTF8
Идентификатор кодека/Информация : UTF-8 Plain Text
Продолжительность : 1 ч. 27 м.
Битрейт : 32 бит/сек
Count of elements : 384
Размер потока : 20,6 Кбайт (0%)
Заголовок : русские
Язык : Russian
Default : Нет
Forced : Нет

Текст #2
Идентификатор : 11
Формат : UTF-8
Идентификатор кодека : S_TEXT/UTF8
Идентификатор кодека/Информация : UTF-8 Plain Text
Продолжительность : 1 ч. 27 м.
Битрейт : 20 бит/сек
Count of elements : 442
Размер потока : 13,1 Кбайт (0%)
Заголовок : английские
Язык : English
Default : Нет
Forced : Нет

Меню
00:00:00.000 : en:00:00:00.000
00:05:35.168 : en:00:05:35.168
00:15:45.570 : en:00:15:45.570
00:28:07.102 : en:00:28:07.102
00:34:26.273 : en:00:34:26.273
00:43:26.020 : en:00:43:26.020
00:54:08.662 : en:00:54:08.662
00:59:43.997 : en:00:59:43.997
01:08:53.880 : en:01:08:53.880
01:16:41.597 : en:01:16:41.597
01:25:14.735 : en:01:25:14.735
01:28:26.927 : en:01:28:26.927

МОИ РЕЛИЗЫ
ВКОНТАКТЕ
pb.wtf



Скачать Демоны 2 через торрент http://s019.radikal.ru/i604/1611/82/37a9c2dc32e4.jpg Скачать фильм Демоны 2 через торрент бесплантно в хорошем качестве Описание: У молодой девушки по имени Салли сегодня вечеринка. Друзья, музыка, выпивка… Но вот в самый разгар веселья, кто-то включает ... 9 10 9
Info! Золотая раздача, скачанное не засчитывается.
Торрент: Зарегистрирован [2016-11-10 09:54] · скачан: 58 раз
Статус: √ проверено
Размер: 4.98 GB
Как cкачать? Как скачать Демоны 2 через торрент | qTorrent



Последний раз редактировалось: msltel (2016-11-12 06:33), всего редактировалось 1 раз

28-11-2019 20:33  

Отключить всю рекламу на сайте

10-11-2016 20:23 Демоны 2 Скачать торрент  

это самый первый фильм который я посмотрел в видео салоне ! был страшным до жути, а сейчас как комедия смотрится. и спустя лет пять я увидел первую часть как приквел.pb.wtf



10-11-2016 20:31 Демоны 2 Скачать торрент  

это классика, но в свои лет 13-14 после просмотра 1-й части, я ожидал большего.pb.wtf



12-11-2016 00:00 Демоны 2 Скачать торрент  

Ууууууу! спасибо, качаюpb.wtf



    Дорогой пользователь! Огромная просьба, поблагодарите релизера, оцените раздачу и оставьте свои комментарий, если Вы скачали Демоны 2 через торрент бесплатно! Внесите свою лепту в развитие PiratBit!
    Комментировать посты могут только пользователи прошедшие не сложную регистрацию
    Показать сообщения:    

    Демоны 2 через торрент
    Скачать бесплатно Демоны 2
    Демоны 2 скачать торрент
    Демоны 2 смотреть онлайн
    Cкачать фильм Демоны 2 бесплатно
    Демоны 2 скачать торрент в хорошем качестве
    Демоны 2 смотреть онлайн бесплатно в хорошем качестве


    Вы не можете начинать темы
    Вы не можете отвечать на сообщения
    Вы не можете редактировать свои сообщения
    Вы не можете удалять свои сообщения
    Вы не можете голосовать в опросах
    Вы не можете прикреплять файлы к сообщениям
    Вы можете скачивать файлы