Ссылка на приватное зеркало всего за 1$. Внимание количество ограничено!!!

iTunes

iTunes

iTunes

1

iTunes

iTunes

iTunes

iTunes

iTunes

30
pack

$ от Little Big

ВАЖНО

!!Акция!!

Alien_RageХит недели

RePack

Resident Evil 21

ИГРА 18+

pack

RePack

jed

!!Акция!!

Alien_Rage

RePack

fifa19

RePack

Assassins Creed: Odyssey

RePack

NEED FOR SPEED™ PAYBACK

4 сезон

9 сезон

Бесстыжие 9 сезон

Все сериалы

все сериалы на PB.wtf

RePack

FAR CRY 5
  

Пока я не исчезну / Before I Disappear [2014, драма, WEB-DL 720p] [MVO] (FocusStudio) + [Sub] (Rus, Eng) pb.wtf

Пока я не исчезну через торрент pb.wtf

Размер: 3.22 GB | Добавлен: 3 года 8 мес. назад | Торрент скачан:161 раз
Скачать  

10-11-2016 19:50 Пока я не исчезну Скачать торрент  

Пока я не исчезну / Before I Disappear
Год выпуска: 2014
Жанр: драма
Выпущено: США
Продолжительность: 01:38:16
Перевод: Профессиональный (многоголосый, закадровый) [FocusStudio]
Cубтитры: русские, английские

Режиссер: Шон Кристенсен

В ролях: АЭмми Россам, Рон Перлман, Пол Уэсли, Фатима Птацек, Шон Кристенсен, Ричард Шифф, Стефани Курцуба, Виктор Круз, Джозеф Перрино, Дж. Элейн Маркос

О фильме: Опустившись на самое дно, Ричи получает звонок от своей сестры, которая просит присмотреть за его одиннадцатилетней племянницей Софией.


Файл
Качество: WEB-DL 720p
Формат: MKV
Видео: AVC, 1280x526 (2.40:1), 23.976 fps, ~3834 kbps
Аудио: 48 kHz, AC3 Dolby Digital, 3/2 (L,C,R,l,r) + LFE ch, ~384.00 kbps avg [MVO]
Аудио: 48 kHz, AC3 Dolby Digital, 3/2 (L,C,R,l,r) + LFE ch, ~384.00 kbps avg [ENG]

Релиз --
Перевод: Анастасия Кисиленко
Format : Matroska
Format version : Version 4 / Version 2
File size : 3.22 GiB
Duration : 1h 38mn
Overall bit rate : 4 696 Kbps
Movie name : Before I Disappear (2014) @ FocusStudio
Encoded date : UTC 2016-11-10 05:11:12
Writing application : mkvmerge v8.3.0 ('Over the Horizon') 64bit
Writing library : libebml v1.3.1 + libmatroska v1.4.2
Video
ID : 1
Format : AVC
Format/Info : Advanced Video Codec
Format profile : Main@L3.1
Format settings, CABAC : No
Format settings, ReFrames : 2 frames
Codec ID : V_MPEG4/ISO/AVC
Duration : 1h 38mn
Bit rate : 3 834 Kbps
Width : 1 280 pixels
Height : 526 pixels
Display aspect ratio : 2.40:1
Frame rate mode : Constant
Frame rate : 23.976 fps
Color space : YUV
Chroma subsampling : 4:2:0
Bit depth : 8 bits
Scan type : Progressive
Bits/(Pixel*Frame) : 0.238
Stream size : 2.63 GiB (82%)
Language : English
Default : Yes
Forced : No
Color range : Limited
Color primaries : BT.709
Transfer characteristics : BT.709
Matrix coefficients : BT.709
Audio #1
ID : 2
Format : AC-3
Format/Info : Audio Coding 3
Mode extension : CM (complete main)
Format settings, Endianness : Big
Codec ID : A_AC3
Duration : 1h 38mn
Bit rate mode : Constant
Bit rate : 384 Kbps
Channel(s) : 6 channels
Channel positions : Front: L C R, Side: L R, LFE
Sampling rate : 48.0 KHz
Frame rate : 31.250 fps (1536 spf)
Compression mode : Lossy
Stream size : 270 MiB (8%)
Title : DD5.1 MVO FocusStudio
Language : Russian
Default : Yes
Forced : No
Audio #2
ID : 3
Format : AC-3
Format/Info : Audio Coding 3
Mode extension : CM (complete main)
Format settings, Endianness : Big
Codec ID : A_AC3
Duration : 1h 38mn
Bit rate mode : Constant
Bit rate : 384 Kbps
Channel(s) : 6 channels
Channel positions : Front: L C R, Side: L R, LFE
Sampling rate : 48.0 KHz
Frame rate : 31.250 fps (1536 spf)
Compression mode : Lossy
Stream size : 270 MiB (8%)
Title : DD5.1 Original
Language : English
Default : No
Forced : No
Text #1
ID : 4
Format : UTF-8
Codec ID : S_TEXT/UTF8
Codec ID/Info : UTF-8 Plain Text
Title : FocusStudio
Language : Russian
Default : No
Forced : No
Text #2
ID : 5
Format : UTF-8
Codec ID : S_TEXT/UTF8
Codec ID/Info : UTF-8 Plain Text
Title : Original
Language : English
Default : No
Forced : No
Menu
00:00:00.000 : en:Chapter 01
00:09:32.000 : en:Chapter 02
00:20:19.000 : en:Chapter 03
00:29:32.000 : en:Chapter 04
00:43:25.000 : en:Chapter 05
00:51:54.000 : en:Chapter 06
00:59:26.000 : en:Chapter 07
01:10:28.000 : en:Chapter 08
01:19:48.000 : en:Chapter 09
01:33:51.000 : en:Chapter 10
pb.wtf



Скачать Пока я не исчезну через торрент http://i82.fastpic.ru/big/2016/1110/a9/83e062bcc49b53b38d5a908f1d83dfa9.jpg Скачать фильм Пока я не исчезну через торрент бесплантно в хорошем качестве О фильме: Опустившись на самое дно, Ричи получает звонок от своей сестры, которая просит присмотреть за его одиннадцатилетней племянницей ... 8.8 10 8
Торрент: Зарегистрирован [2016-11-10 19:50] · скачан: 161 раз
Статус: √ проверено
Размер: 3.22 GB
Как cкачать? Как скачать Пока я не исчезну через торрент | qTorrent

% Раздел Тема Автор DL S | L
Фильмы 2014 [DVDrip, WEB-DLRip, HDrip] [ 1.46 GB ] Пока я не исчезну / Before I Disappear [2014 WEB-DLRip] [MVO] + [Sub] killermax2013 Скачать
1 | 0

28-11-2019 20:33  

Отключить всю рекламу на сайте

13-11-2016 04:45 Пока я не исчезну Скачать торрент  

Фильм про то,что наркоманы тоже люди!?По мне так этот чувак полный урод,нихера не умеющий в жизни и таких нужно каждый день мордой в опускать.pb.wtf



14-11-2016 10:27 Пока я не исчезну Скачать торрент  

в очередной раз убедился что верить рейтингам нельзя, фильм хз о чем вообще pb.wtf



    Дорогой пользователь! Огромная просьба, поблагодарите релизера, оцените раздачу и оставьте свои комментарий, если Вы скачали Пока я не исчезну через торрент бесплатно! Внесите свою лепту в развитие PiratBit!
    Комментировать посты могут только пользователи прошедшие не сложную регистрацию
    Показать сообщения:    

    Пока я не исчезну через торрент
    Скачать бесплатно Пока я не исчезну
    Пока я не исчезну скачать торрент
    Пока я не исчезну смотреть онлайн
    Cкачать фильм Пока я не исчезну бесплатно
    Пока я не исчезну скачать торрент в хорошем качестве
    Пока я не исчезну смотреть онлайн бесплатно в хорошем качестве


    Вы не можете начинать темы
    Вы не можете отвечать на сообщения
    Вы не можете редактировать свои сообщения
    Вы не можете удалять свои сообщения
    Вы не можете голосовать в опросах
    Вы не можете прикреплять файлы к сообщениям
    Вы можете скачивать файлы