Ссылка на приватное зеркало нашего сайта всего за 1$. Внимание количество ограничено!!!

2 сезон

iTunes

1 сезон

1

2 сезон

2 сезон

iTunes

1 сезон

RePack

30

Ultimate

ВАЖНО

ИГРА 18+

pack

RePack

MK11
pack

Забери бонус

RePack

jed

!!Акция!!

Alien_Rage

RePack

fifa19

RePack

Assassins Creed: Odyssey

RePack

NEED FOR SPEED™ PAYBACK

4 сезон

9 сезон

Бесстыжие 9 сезон

Все сериалы

все сериалы на PB.wtf

RePack

FAR CRY 5
  

Завтра не наступит / No Tomorrow / Сезон 1 / Серии 1-8 из 13 (Брэд Силберлинг / Brad Silberling) [2016, драма, комедия, WEB-DLRip] [MVO] (Fox Life) pb.wtf

Завтра не наступит через торрент pb.wtf

Размер: 3.4 GB | Добавлен: 3 года 11 мес. назад | Торрент скачан:8 раз
Скачать  

11-11-2016 10:32 Завтра не наступит Скачать торрент  

Завтра не наступит / No Tomorrow
Год выпуска: 2016
Выпущено: США
Жанр: драма, комедия
Продолжительность: 3 х ~00:43:00
Перевод: Профессиональный (многоголосый закадровый) (Fox Life)
Субтитры: нет

Реклама: Полностью отсутствует

Режиссер: Стюарт Гиллард, Брэд Силберлинг

В ролях: Джошуа Сасс, Виктория Андерсон, Jonathan Langdon, Сарайю Рао, Джесси Рат, Эми Пьетц, Тед МакГинли, Джордж Бейзил, Келли Стейблз, Чела Хорсдэл

Описание:
Романтическая история о двух противоположностях — девушке, которая всеми силами стремится к стабильности и избегает риска, и мужчине, который верит, что конец света неизбежен, и потому готов на все, что угодно, чтобы прожить оставшиеся дни незабываемо.


Качество: WEB-DLRip
Формат: AVI
Видео: XvID, 720x400, XviD ~1300 kbps, 25 fps
Аудио: 48.O KHz, AC3, 2 ch, 192 Кбит/с
Звук: CasStudio
General
Complete name : E:\No.Tomorrow.S01.WEB-DLRip.Generalfilm\No.Tomorrow.S01E01.WEB-DLRip.Generalfilm.avi
Format : AVI
Format/Info : Audio Video Interleave
File size : 434 MiB
Duration : 40mn 44s
Overall bit rate : 1 489 Kbps
Writing application : VirtualDubMod 1.5.10.3 | www.virtualdub-fr.org || (build 2550/release)
Writing library : VirtualDubMod build 2550/release

Video
ID : 0
Format : MPEG-4 Visual
Format profile : Advanced Simple@L5
Format settings, BVOP : 1
Format settings, QPel : No
Format settings, GMC : No warppoints
Format settings, Matrix : Default (MPEG)
Codec ID : XVID
Codec ID/Hint : XviD
Duration : 40mn 44s
Bit rate : 1 288 Kbps
Width : 720 pixels
Height : 400 pixels
Display aspect ratio : 16:9
Frame rate : 25.000 fps
Color space : YUV
Chroma subsampling : 4:2:0
Bit depth : 8 bits
Scan type : Progressive
Compression mode : Lossy
Bits/(Pixel*Frame) : 0.179
Stream size : 375 MiB (86%)
Writing library : XviD 73

Audio
ID : 1
Format : AC-3
Format/Info : Audio Coding 3
Mode extension : CM (complete main)
Format settings, Endianness : Big
Codec ID : 2000
Duration : 40mn 44s
Bit rate mode : Constant
Bit rate : 192 Kbps
Channel(s) : 2 channels
Channel positions : Front: L R
Sampling rate : 48.0 KHz
Compression mode : Lossy
Stream size : 56.0 MiB (13%)
Alignment : Split accross interleaves
Interleave, duration : 40 ms (1.00 video frame)
Interleave, preload duration : 500 ms
Внимание! Раздача ведётся путём добавления новых серий; при каждом добавлении создётся новый торрент. Чтобы начать докачку новой серии, пользователям необходимо сделать следующее:
Остановить скачивание.
Удалить старый торрент у себя из клиента (старые серии удалять не надо).
Скачать новый торрент и запустить его у себя в клиенте вместо старого, при этом указать клиенту путь в старую папку куда и должно происходить скачивание новых серий.
Ваш клиент при этом должен произвести хеширование (проверку) старой папки (если не производит сам - помогите ему сделать это), и будет докачивать только те серии которых у вас ещё нет. Старые серии при этом не удаляются, а продолжают раздаваться!
Eсли вы уже удалили старые серии, то предотвратить повторную закачку старых серий можно, отжав галочку в соответсвующих местах при запуске нового торрента. По возможности, желательно не удалять старые серии как можно дольше чтобы релизёр не столько продолжал раздавать старые серии, а смог сконцентрироваться на новых.


Релиз от: pb.wtf



Скачать Завтра не наступит через торрент http://i82.fastpic.ru/big/2016/1030/3a/32056971bf5689e6fc38519bc544ca3a.jpg Скачать фильм Завтра не наступит через торрент бесплантно в хорошем качестве Описание:Романтическая история о двух противоположностях — девушке, которая всеми силами стремится к стабильности и избегает риска, и ... 10 10 2
Торрент: Зарегистрирован [2016-12-16 10:01] · скачан: 8 раз
Статус: √ проверено
Размер: 3.4 GB
Как cкачать? Как скачать Завтра не наступит через торрент | qTorrent

% Раздел Тема Автор DL S | L
Зарубежные сериалы [ 10.84 GB ] Завтра не наступит / No Tomorrow / Сезон 1 / Серии 1-8 из 13 [2016 WEB-DL 720p] [MVO] killermax2013 Скачать
1 | 0


Последний раз редактировалось: killermax2013 (2016-12-16 10:01), всего редактировалось 3 раз(а)

28-11-2019 20:33  

Отключить всю рекламу на сайте

11-11-2016 13:58 Завтра не наступит Скачать торрент  

killermax2013, добавте отчет МИ и информацию по добавлению новых серийpb.wtf



25-11-2016 13:02 Завтра не наступит Скачать торрент  

+5pb.wtf



16-12-2016 10:01 Завтра не наступит Скачать торрент  

+6-8pb.wtf



    Дорогой пользователь! Огромная просьба, поблагодарите релизера, оцените раздачу и оставьте свои комментарий, если Вы скачали Завтра не наступит через торрент бесплатно! Внесите свою лепту в развитие PiratBit!
    Комментировать посты могут только пользователи прошедшие не сложную регистрацию
    Показать сообщения:    

    Завтра не наступит через торрент
    Скачать бесплатно Завтра не наступит
    Завтра не наступит скачать торрент
    Завтра не наступит смотреть онлайн
    Cкачать фильм Завтра не наступит бесплатно
    Завтра не наступит скачать торрент в хорошем качестве
    Завтра не наступит смотреть онлайн бесплатно в хорошем качестве


    Вы не можете начинать темы
    Вы не можете отвечать на сообщения
    Вы не можете редактировать свои сообщения
    Вы не можете удалять свои сообщения
    Вы не можете голосовать в опросах
    Вы не можете прикреплять файлы к сообщениям
    Вы можете скачивать файлы