Лицензия

MVO

1

1 сезон

Лицензия

Лицензия

13

MVO

1 сезон

Deluxe Edition

pack

Рекомендуем

30

Repack

ВАЖНО

ВАЖНО

Ghostwire

RePack

jed

RePack

fifa19

RePack

RDR2

RePack

NEED FOR SPEED™ PAYBACK

RePack

Кинопоиск HD

 Острые козырьки 6 сезон

6 сезон

FAR CRY 6

RePack

Лицензия

MVO

1

1 сезон

1 сезон

Лицензия

  

Приди и найди меня / Come and Find Me (Зак Уэдон) [2016, драма, WEB-DL 1080p] [ENG]

Приди и найди меня через торрент pb.wtf

Размер: 3.88 GB | Добавлен: 5 лет 10 мес. назад | Торрент скачан:11 раз
Смотреть онлайн Приди и найди меня | Скачать   

11-11-2016 12:31 Приди и найди меня Скачать торрент  

Приди и найди меня / Come and Find Me


Год выпуска: 2016
Выпущено: Великобритания
Жанр: драма
Продолжительность: 01:52:03
Перевод: Отсутствует! [английский оригинал]
Субтитры: английские

Режиссер: Зак Уэдон

В ролях: Аарон Пол, Аннабелль Уоллис, Гаррет Диллахант, Валери Тиан, Захари Найтон, Терри Чен, Джордана Ларги, Дин Редман, Майкл Копса, Джессика Хифи

Описание: Идеальным отношениям Давида и Клэр приходит внезапный и таинственный конец после того, как Клэр бесследно исчезает. Опустошённый, но не теряющий надежды, Дэвид идёт по её следам, несмотря на нарастающее безумие и опасность. Выяснив, что Клэр ведёт двойную жизнь, он вынужден рисковать всем, чтобы снова её увидеть.



Качество: WEB-DL [1080p]
Формат: MKV
Видео: V_MPEG4/ISO/AVC, 1912x796, 23.976 fps, 4472 Kbps
Аудио: 48.0 KHz, AC3, 6 ch, 384 Kbps
Video
ID : 1
Format : AVC
Format/Info : Advanced Video Codec
Format profile : [email protected]
Format settings, CABAC : Yes
Format settings, ReFrames : 5 frames
Codec ID : V_MPEG4/ISO/AVC
Duration : 1h 52mn
Bit rate : 4 472 Kbps
Width : 1 912 pixels
Height : 796 pixels
Display aspect ratio : 2.40:1
Frame rate mode : Constant
Frame rate : 23.976 (24000/1001) fps
Color space : YUV
Chroma subsampling : 4:2:0
Bit depth : 8 bits
Scan type : Progressive
Bits/(Pixel*Frame) : 0.123
Stream size : 3.50 GiB (90%)
Title : Come.and.Find.Me.2016.1080p.WEB-DL.DD5.1
Language : English
Default : Yes
Forced : No
Color range : Limited
Color primaries : BT.709
Transfer characteristics : BT.709
Matrix coefficients : BT.709

Audio
ID : 2
Format : AC-3
Format/Info : Audio Coding 3
Mode extension : CM (complete main)
Format settings, Endianness : Big
Codec ID : A_AC3
Duration : 1h 52mn
Bit rate mode : Constant
Bit rate : 384 Kbps
Channel(s) : 6 channels
Channel positions : Front: L C R, Side: L R, LFE
Sampling rate : 48.0 KHz
Frame rate : 31.250 fps (1536 spf)
Compression mode : Lossy
Stream size : 308 MiB (8%)
Title : Come.and.Find.Me.2016.1080p.WEB-DL.DD5.1
Language : English
Default : Yes
Forced : No

Text
ID : 3
Format : UTF-8
Codec ID : S_TEXT/UTF8
Codec ID/Info : UTF-8 Plain Text
Language : English
Default : Yes
Forced : No

Menu
00:00:00.000 : en:1
00:10:26.000 : en:2
00:21:17.000 : en:3
00:31:41.000 : en:4
00:40:13.000 : en:5
00:51:13.000 : en:6
01:02:03.000 : en:7
01:14:57.000 : en:8
01:24:28.000 : en:9
01:34:11.000 : en:10
01:47:21.000 : en:11




Скачать Приди и найди меня через торрент http://i85.fastpic.ru/big/2016/1111/3f/fcd9eda8695d5a1121b0acd2b37b673f.jpg Скачать, смотреть онлайн Приди и найди меня бесплантно в хорошем качестве Описание: Идеальным отношениям Давида и Клэр приходит внезапный и таинственный конец после того, как Клэр бесследно исчезает. Опустошённый, ... 5 10 1
Торрент: Зарегистрирован [2016-11-11 12:31] · скачан: 11 раз
Статус: √ проверено
Размер: 3.88 GB
Как cкачать? Как скачать Приди и найди меня через торрент | UTorrent

28-11-2019 20:33  

Отключить вcю реклaмy на сайте

    Дорогой пользователь! Огромная просьба, поблагодарите релизера, оцените раздачу и оставьте свои комментарий, если Вы скачали Приди и найди меня через торрент бесплатно!!
    Комментировать посты могут только пользователи прошедшие не сложную регистрацию
    Показать сообщения:    


    Приди и найди меня через торрент
    Скачать бесплатно Приди и найди меня
    Приди и найди меня скачать торрент
    Приди и найди меня смотреть онлайн
    Cкачать фильм Приди и найди меня бесплатно
    Приди и найди меня скачать торрент в хорошем качестве
    Приди и найди меня смотреть онлайн бесплатно в хорошем качестве
    Вы не можете начинать темы
    Вы не можете отвечать на сообщения
    Вы не можете редактировать свои сообщения
    Вы не можете удалять свои сообщения
    Вы не можете голосовать в опросах
    Вы не можете прикреплять файлы к сообщениям
    Вы можете скачивать файлы