Ссылка на приватное зеркало всего за 1$. Внимание количество ограничено!!!

iTunes

iTunes

iTunes

1

iTunes

iTunes

iTunes

iTunes

iTunes

30
pack

$ от Little Big

ВАЖНО

!!Акция!!

Alien_RageХит недели

RePack

Resident Evil 21

ИГРА 18+

pack

RePack

jed

!!Акция!!

Alien_Rage

RePack

fifa19

RePack

Assassins Creed: Odyssey

RePack

NEED FOR SPEED™ PAYBACK

4 сезон

9 сезон

Бесстыжие 9 сезон

Все сериалы

все сериалы на PB.wtf

RePack

FAR CRY 5
  

Монстры существуют / The Monster (Брайан Бертино) [2016, ужасы, драма, WEB-DL 1080p] [VO] (А. Толмачев) pb.wtf

Монстры существуют через торрент pb.wtf

Размер: 3.26 GB | Добавлен: 3 года 7 мес. назад | Торрент скачан:180 раз
Скачать  

12-11-2016 22:05 Монстры существуют Скачать торрент  

Монстры существуют / The Monster


Год выпуска: 2016
Выпущено: США
Жанр: ужасы
Продолжительность: 01:31:08
Перевод: Любительский (одноголосый) [Алексей Толмачев]
Субтитры: английские

Режиссер: Брайан Бертино

В ролях: Зои Казан, Элла Бэллентайн, Скотт Спидман, Аарон Дуглас, Крис Уэбб, Кристин Эбади

Описание: Мать с 10-летней дочерью оказались в ловушке в лесу. Что-то скрывается в этом лесу. Что-то, по звуку непохожее на все, что они слышали прежде. Не человек, и не животное. Как тысяча лошадей или крик матери, как плач младенца или вопль отца. Что-то скрывается в кромешной темноте, и это что-то идет за ними.



Качество: WEB-DL [1080p]
Формат: MKV
Видео: V_MPEG4/ISO/AVC, 1920x792, 23.976 fps, 4516 Kbps
Аудио: 48.0 KHz, MP3, 2 ch, 128 Kbps [VO]
Аудио: 48.0 KHz, AC3, 6 ch, 384 Kbps [Eng]
General
Unique ID : 195072886943684899947107995113149989714 (0x92C1ABE2DB04CA489A3FDD6AFB948352)
Complete name : The.Monster.2016.1080p.WEB-DL.DD5.1.H264.DENZEL519.mkv
Format : Matroska
Format version : Version 4 / Version 2
File size : 3.26 GiB
Duration : 1h 31mn
Overall bit rate : 5 128 Kbps
Movie name : The.Monster.2016.1080p.WEB-DL.DD5.1.H264-FGT
Encoded date : UTC 2016-11-12 13:32:47
Writing application : mkvmerge v9.5.0 ('Quiet Fire') 64bit
Writing library : libebml v1.3.4 + libmatroska v1.4.5
DURATION : 01:23:17.258000000
NUMBER_OF_FRAMES : 569
NUMBER_OF_BYTES : 14316
_STATISTICS_WRITING_APP : mkvmerge v9.5.0 ('Quiet Fire') 64bit
_STATISTICS_WRITING_DATE_UTC : 2016-11-12 13:32:47
_STATISTICS_TAGS : BPS DURATION NUMBER_OF_FRAMES NUMBER_OF_BYTES
Attachment : Yes / Yes / Yes / Yes

Video
ID : 2
Format : AVC
Format/Info : Advanced Video Codec
Format profile : High@L4.0
Format settings, CABAC : Yes
Format settings, ReFrames : 5 frames
Codec ID : V_MPEG4/ISO/AVC
Duration : 1h 31mn
Bit rate : 4 514 Kbps
Width : 1 920 pixels
Height : 792 pixels
Display aspect ratio : 2.40:1
Frame rate mode : Constant
Frame rate : 23.976 fps
Color space : YUV
Chroma subsampling : 4:2:0
Bit depth : 8 bits
Scan type : Progressive
Bits/(Pixel*Frame) : 0.124
Stream size : 2.87 GiB (88%)
Title : The.Monster.2016.1080p.WEB-DL.DD5.1.H264-FGT
Language : English
Default : Yes
Forced : No
Color primaries : BT.709
Transfer characteristics : BT.709
Matrix coefficients : BT.709

Audio #1
ID : 1
Format : MPEG Audio
Format version : Version 1
Format profile : Layer 3
Mode : Joint stereo
Codec ID : A_MPEG/L3
Codec ID/Hint : MP3
Duration : 1h 31mn
Bit rate mode : Constant
Bit rate : 128 Kbps
Channel(s) : 2 channels
Sampling rate : 48.0 KHz
Compression mode : Lossy
Stream size : 83.4 MiB (2%)
Title : Rus
Language : Russian
Default : Yes
Forced : No

Audio #2
ID : 3
Format : AC-3
Format/Info : Audio Coding 3
Mode extension : CM (complete main)
Format settings, Endianness : Big
Codec ID : A_AC3
Duration : 1h 31mn
Bit rate mode : Constant
Bit rate : 384 Kbps
Channel(s) : 6 channels
Channel positions : Front: L C R, Side: L R, LFE
Sampling rate : 48.0 KHz
Bit depth : 16 bits
Compression mode : Lossy
Stream size : 250 MiB (7%)
Title : The.Monster.2016.1080p.WEB-DL.DD5.1.H264-FGT
Language : English
Default : No
Forced : No

Text
ID : 4
Format : UTF-8
Codec ID : S_TEXT/UTF8
Codec ID/Info : UTF-8 Plain Text
Language : English
Default : Yes
Forced : No

Menu
00:00:00.000 : en:1
00:10:37.554 : en:2
00:20:30.188 : en:3
00:30:09.684 : en:4
00:40:01.192 : en:5
00:50:15.931 : en:6
01:02:58.985 : en:7
01:10:04.702 : en:8
01:20:31.203 : en:9
01:24:55.091 : en:10

pb.wtf



Скачать Монстры существуют через торрент http://i85.fastpic.ru/big/2016/1111/c2/0985c5527c1dc1674bacdcc3172cfcc2.jpg Скачать фильм Монстры существуют через торрент бесплантно в хорошем качестве Описание: Мать с 10-летней дочерью оказались в ловушке в лесу. Что-то скрывается в этом лесу. Что-то, по звуку непохожее на все, что они ... 7 10 3
Торрент: Зарегистрирован [2016-11-12 22:05] · скачан: 180 раз
Статус: T временная
Размер: 3.26 GB
Как cкачать? Как скачать Монстры существуют через торрент | qTorrent

% Раздел Тема Автор DL S | L
T Фильмы 2016 [DVDrip, WEB-DLRip, HDrip] (DUB, MVO) [ 1.37 GB ] Монстры существуют / The Monster [2016 WEB-DLRip] Любительский Синема УС Userman4ik Скачать
1 | 0
T Фильмы 2016 (Звук TS, Cam, VO, DVO) [ 702 MB ] Монстры существуют / The Monster [2016 WEB-DLRip] [VO] Sherif Скачать
1 | 0
T Релизы по Парсеру [Игры, Сериалы и Фильмы и другое...] [ 3.43 GB ] Монстры существуют / The Monster [2016 WEB-DL 1080p] Любительский одноголосый [Xixidok] -Lexx- Скачать
1 | 0
Фильмы без перевода [ 3.18 GB ] Монстры существуют / The Monster [2016 WEB-DL 1080p] [ENG] killermax2013 Скачать
1 | 0

28-11-2019 20:33  

Отключить всю рекламу на сайте

13-11-2016 02:46 Монстры существуют Скачать торрент  

Бубляж ожидается?pb.wtf



13-11-2016 09:43 Монстры существуют Скачать торрент  

zra писал(а):

Бубляж ожидается?

максимум многоголоска с тунца но хз когдаpb.wtf



    Дорогой пользователь! Огромная просьба, поблагодарите релизера, оцените раздачу и оставьте свои комментарий, если Вы скачали Монстры существуют через торрент бесплатно! Внесите свою лепту в развитие PiratBit!
    Комментировать посты могут только пользователи прошедшие не сложную регистрацию
    Показать сообщения:    

    Монстры существуют через торрент
    Скачать бесплатно Монстры существуют
    Монстры существуют скачать торрент
    Монстры существуют смотреть онлайн
    Cкачать фильм Монстры существуют бесплатно
    Монстры существуют скачать торрент в хорошем качестве
    Монстры существуют смотреть онлайн бесплатно в хорошем качестве


    Вы не можете начинать темы
    Вы не можете отвечать на сообщения
    Вы не можете редактировать свои сообщения
    Вы не можете удалять свои сообщения
    Вы не можете голосовать в опросах
    Вы не можете прикреплять файлы к сообщениям
    Вы можете скачивать файлы