Всегда рабочее зеркало без VPN и Proxy просто перед .vidak.icu напиши любое слово или цифру, Пример http://whb1.vidak.icu

Лицензия

MVO

1 сезон

1

1 сезон

iTunes

1 сезон

13

1 сезон

Deluxe

pack

Рекомендуем

Repack

30

ВАЖНО

RePack

MK11

RePack

jed

RePack

fifa19

RePack

RDR2

RePack

NEED FOR SPEED™ PAYBACK

Кинопоиск HD

6 сезон

 Острые козырьки 6 сезон

Все сериалы

все сериалы на PB.wtf

RePack

FAR CRY 5
  
Magnet ссылка

Дом для русалок / Dom dlya rusalok (Ёлкин Туйчиев) [2015, драма, WEB-DLRip] Не требуется [Русский] [iTunes] pb.wtf

Дом для русалок через торрент pb.wtf

Размер: 1.46 GB | Добавлен: 5 лет 9 мес. назад | Торрент скачан:82 раза
Смотреть онлайн Дом для русалок | Скачать    Ребята, помогите собрать деньги на оплату серверов!!!

13-11-2016 14:55 Дом для русалок Скачать торрент  

Дом для русалок / Dom dlya rusalok

Год выпуска: 2015
Страна: Германия, Швеция, Эстония, Казахстан, Узбекистан
Жанр: драма
Продолжительность: 01:21:02
Перевод: Не требуется [Русский] [iTunes]
Субтитры: Русские (вшитые) на иностранную речь
Режиссер: Ёлкин Туйчиев
В ролях:

Шахзода Матчанова (Samal), Юлия Усадова (Djeiran), Сейдулла Молдаханов (Aimas)
Описание:
Он пропустил жизнь, он потерял дочь, но встретил ее - прекрасную и таинственную девушку по имени Самал, что в переводе означает Ветер. Безумным и стремительным порывом она врывается в его жизнь, увлекая в сомнительные авантюры и загадочные истории. Ему кажется, что впервые в жизни обрел близкого человека, он хочет быть рядом с ней всегда. Но как можно стать ближе к ветру и запереть его на замок?
Рейтинг:

Качество: WEB-DLRip
Формат: AVI
Видео: XviD, 688x368 (1.85:1), 2082 kbps, 24 fps, 0,343 bpp
Аудио: AC3 / 5.1 / 48 kHz / 384 kbps /
Релиз от: MegaPeer
General
Complete name : E:\Torrent\film\House.for.Mermaids.2015.WEB-DLRip.1.46Gb.MegaPeer.avi
Format : AVI
Format/Info : Audio Video Interleave
File size : 1.46 GiB
Duration : 1 h 21 min
Overall bit rate : 2 577 kb/s

Video
ID : 0
Format : MPEG-4 Visual
Format profile : Advanced [email protected]
Format settings, BVOP : 1
Format settings, QPel : No
Format settings, GMC : No warppoints
Format settings, Matrix : Custom
Codec ID : XVID
Codec ID/Hint : XviD
Duration : 1 h 21 min
Bit rate : 2 083 kb/s
Width : 688 pixels
Height : 368 pixels
Display aspect ratio : 1.85:1
Frame rate : 24.000 FPS
Color space : YUV
Chroma subsampling : 4:2:0
Bit depth : 8 bits
Scan type : Progressive
Compression mode : Lossy
Bits/(Pixel*Frame) : 0.343
Stream size : 1.18 GiB (81%)
Writing library : XviD 73

Audio
ID : 1
Format : AC-3
Format/Info : Audio Coding 3
Mode extension : CM (complete main)
Format settings, Endianness : Big
Codec ID : 2000
Duration : 1 h 21 min
Bit rate mode : Constant
Bit rate : 384 kb/s
Channel(s) : 6 channels
Channel positions : Front: L C R, Side: L R, LFE
Sampling rate : 48.0 kHz
Frame rate : 31.250 FPS (1536 spf)
Compression mode : Lossy
Stream size : 223 MiB (15%)
Alignment : Aligned on interleaves
Title : iTunes
pb.wtf



Скачать Дом для русалок через торрент http://i4.imageban.ru/out/2016/11/13/8d35f810d5d16a5b8a9904fd23f1fc79.jpg Скачать, смотреть онлайн Дом для русалок бесплантно в хорошем качестве Описание: Он пропустил жизнь, он потерял дочь, но встретил ее - прекрасную и таинственную девушку по имени Самал, что в переводе означает ... 4.6 10 5
Торрент: Зарегистрирован [2016-11-13 14:55] · скачан: 82 раз
Статус: √ проверено
Размер: 1.46 GB
Как cкачать? Как скачать Дом для русалок через торрент | UTorrent

% Раздел Тема Автор DL S | L
Наши фильмы (HD, WEB-DL 720p, 1080p) [ 2.5 GB ] Дом для русалок / Dom dlya rusalok [2015 WEB-DL 720p] [Русский] -Lexx- Скачать
1 | 0

28-11-2019 20:33  

Отключить вcю реклaмy на сайте

    Дорогой пользователь! Огромная просьба, поблагодарите релизера, оцените раздачу и оставьте свои комментарий, если Вы скачали Дом для русалок через торрент бесплатно!
    Комментировать посты могут только пользователи прошедшие не сложную регистрацию
    Показать сообщения:    

    Дом для русалок через торрент
    Скачать бесплатно Дом для русалок
    Дом для русалок скачать торрент
    Дом для русалок смотреть онлайн
    Cкачать фильм Дом для русалок бесплатно
    Дом для русалок скачать торрент в хорошем качестве
    Дом для русалок смотреть онлайн бесплатно в хорошем качестве


    Вы не можете начинать темы
    Вы не можете отвечать на сообщения
    Вы не можете редактировать свои сообщения
    Вы не можете удалять свои сообщения
    Вы не можете голосовать в опросах
    Вы не можете прикреплять файлы к сообщениям
    Вы можете скачивать файлы