Мега распродажа FORZA HORIZON 4 ULTIMATE+ВСЕ DLC+ОНЛАЙН всего за 499р. 349 руб. (супер цена). Внимание количество ограничено!!!

Лицензия

30

iTunes

мы

iTunes

1

1 сезон

Чернобыль

1 сезон

Ральф против интернета

MVO

Покемон. Детектив Пикачу

8 сезон

Игра престолов

iTunes

1+1

ИГРА 18+

pack

ВАЖНО

!!Акция!!

Alien_RageХит недели

RePack

Resident Evil 21
pack

RePack

Metro:Exodus

!!Акция!!

Alien_Rage

RePack

fifa19

RePack

Assassins Creed: Odyssey

RePack

NEED FOR SPEED™ PAYBACK

3 сезон

9 сезон

Бесстыжие 9 сезон

Все сериалы

все сериалы на PB.wtf

RePack

FAR CRY 5
Ребята, катастрофически не хватает 2730р. для оплаты серверов за МАЙ (всвязи с блокировками трафик упал в 3 раза), 1-2р., выручайте.
  

Внезапно, прошлым летом / Suddenly, Last Summer (Джозеф Лео Манкевич) [1959 г., триллер, драма, детектив, BDRip] MVO pb.wtf

Внезапно, прошлым летом через торрент pb.wtf

Размер: 1.45 GB | Добавлен: 2 года 7 мес. назад | Торрент скачан:18 раз
Скачать  

13-11-2016 15:47 Внезапно, прошлым летом Скачать торрент  

Внезапно прошлым летом / Suddenly Last Summer
Год выпуска: 1959
Страна: США
Жанр: триллер, драма, детектив
Продолжительность: 01:54:16
Перевод: Профессиональный (многоголосый) [1 канал]

Режиссер: Джозеф Лео Манкевич

Бюджет: $3 000 000
Премьера в мире: 22 декабря 1959

rating

В ролях: Элизабет Тейлор, Кэтрин Хепбёрн, Монтгомери Клифт, Альберт Деккер, Мерседес МакКэмбридж, Гари Рэймонд, Мевис Виллерс, Патриция Мармот, Джоан Янг, Мария Бритнева, Шейла Роббинс, Дэвид Кэмерон

Описание: 1937 год. Доктор-нейрохирург Кукровиц делает передовые операции на мозге - лоботомию. Его клиника очень нуждается в деньгах. Неожиданное предложение богатой вдовы миссис Виолет Вэнебл спонсировать строительство больницы взамен на согласие доктора сделать операцию лоботомии её душевнобольной племяннице Кэтрин Холли оказывается как нельзя кстати. Мучительные сомнения начинают одолевать доктора после знакомства с Кэтрин. Девушка испытала психическое потрясение прошлым летом: она стала свидетельницей смерти сына миссис Вэнебл Себастьяна в мексиканской деревушке, куда они вдвоём ездили отдыхать. И, как выясняется, за этой смертью кроется страшная семейная тайна…

Качество: BDRip
Формат: AVI
Видео кодек: XviD
Аудио кодек: AC3
Видео: XviD, 1616 Кбит/с, 720x400, 23.976 кадр/с
Аудио: AC3, 2 ch, 192 Кбит/с, 48 kHz
Релиз от: Koenig
Общее
Полное имя : Suddenly.Last.Summer.1959.BDRip.avi
Формат : AVI
Формат/Информация : Audio Video Interleave
Размер файла : 1,45 Гбайт
Продолжительность : 1 ч. 54 м.
Общий поток : 1817 Кбит/сек
Программа кодирования : VirtualDubMod 1.5.10.2 (build 2540/release)
Библиотека кодирования : VirtualDubMod build 2540/release

Видео
Идентификатор : 0
Формат : MPEG-4 Visual
Профиль формата : Advanced Simple@L5
Параметр BVOP формата : 1
Параметр QPel формата : Нет
Параметр GMC формата : Без точки перехода
Параметр матрицы формата : Выборочная
Идентификатор кодека : XVID
Идентификатор кодека/Подсказка : XviD
Продолжительность : 1 ч. 54 м.
Битрейт : 1616 Кбит/сек
Ширина : 720 пикселей
Высота : 400 пикселей
Соотношение сторон : 16:9
Частота кадров : 23,976 (24000/1001) кадра/сек
Цветовое пространство : YUV
Субдискретизация насыщенности : 4:2:0
Битовая глубина : 8 бит
Тип развёртки : Прогрессивная
Метод сжатия : С потерями
Бит/(Пиксели*Кадры) : 0.234
Размер потока : 1,29 Гбайт (89%)
Библиотека кодирования : XviD 73

Аудио
Идентификатор : 1
Формат : AC-3
Формат/Информация : Audio Coding 3
Расширение режима : CM (complete main)
Параметр Endianness формата : Big
Идентификатор кодека : 2000
Продолжительность : 1 ч. 54 м.
Вид битрейта : Постоянный
Битрейт : 192 Кбит/сек
Каналы : 2 канала
Расположение каналов : Front: L R
Частота : 48,0 КГц
Частота кадров : 31,250 кадров/сек (1536 spf)
Битовая глубина : 16 бит
Метод сжатия : С потерями
Размер потока : 157 Мбайт (11%)
Выравнивание : Разделение по промежуткам
Продолжительность промежутка : 42 мс. (1,00 видеокадр)
Время предзагрузки промежутка : 500 мс.

pb.wtf



Скачать Внезапно, прошлым летом через торрент http://pic1.kartinco.top/images/11/zp7wp.jpg Скачать фильм Внезапно, прошлым летом через торрент бесплантно в хорошем качестве Описание: 1937 год. Доктор-нейрохирург Кукровиц делает передовые операции на мозге - лоботомию. Его клиника очень нуждается в деньгах. ... 10 10 2
Info! Золотая раздача, скачанное не засчитывается.
Торрент: Зарегистрирован [2016-11-13 15:47] · скачан: 18 раз
Статус: √ проверено
Размер: 1.45 GB
Как cкачать? Как скачать Внезапно, прошлым летом через торрент | qTorrent


>> Регистрируемся здесь <<






Отзывы и комментарии о схеме читаем и пишем здесь: ---> Отзывы и комментарии о схеме

Новые благодарочки в телеграм довольных пользователей:
скриншот   скриншот   скриншот   скриншот   скриншот

07-09-2018 20:32 Внезапно, прошлым летом Скачать торрент  

Великолепный классический фильм по пьесе Теннесси Уильямса. В жизни драматурга было столько дегенератов, моральных уродов и психически больных людей, что темой он владел в совершенстве, а знакомство с биографией очень помогает в понимании творчества. Блестящие актерские работы, режиссура, драматургия, съемки, весь антураж. Качество видео и перевод хорошие. Спасибо за раздачу.pb.wtf



    Дорогой пользователь! Огромная просьба, поблагодарите релизера, оцените раздачу и оставьте свои комментарий, если Вы скачали Внезапно, прошлым летом через торрент бесплатно! Внесите свою лепту в развитие PiratBit!
    Комментировать посты могут только пользователи прошедшие не сложную регистрацию
    Показать сообщения:    

    Внезапно, прошлым летом через торрент
    Скачать бесплатно Внезапно, прошлым летом
    Внезапно, прошлым летом скачать торрент
    Внезапно, прошлым летом смотреть онлайн
    Cкачать фильм Внезапно, прошлым летом бесплатно
    Внезапно, прошлым летом скачать торрент в хорошем качестве
    Внезапно, прошлым летом смотреть онлайн бесплатно в хорошем качестве


    Вы не можете начинать темы
    Вы не можете отвечать на сообщения
    Вы не можете редактировать свои сообщения
    Вы не можете удалять свои сообщения
    Вы не можете голосовать в опросах
    Вы не можете прикреплять файлы к сообщениям
    Вы можете скачивать файлы