Ссылка на приватное зеркало нашего сайта всего за 1$. Внимание количество ограничено!!!

2 сезон

iTunes

1 сезон

1

iTunes

iTunes

iTunes

1 сезон

RePack

30

ИГРА 18+

pack

ВАЖНО

!!Акция!!

Alien_RageХит недели

RePack

MK11
pack

Забери бонус

RePack

jed

!!Акция!!

Alien_Rage

RePack

fifa19

RePack

Assassins Creed: Odyssey

RePack

NEED FOR SPEED™ PAYBACK

4 сезон

9 сезон

Бесстыжие 9 сезон

Все сериалы

все сериалы на PB.wtf

RePack

FAR CRY 5
  

Пугала / Scarecrows (Уильям Уэсли) [1988, ужасы, триллер, BDRip 720p by msltel] DVO, AVO pb.wtf

Пугала через торрент pb.wtf

Размер: 3.46 GB | Добавлен: 3 года 11 мес. назад | Торрент скачан:64 раза
Скачать  

14-11-2016 08:17 Пугала Скачать торрент  

Название: Пугала
Оригинальное название: Scarecrows
Год выпуска: 1988
Страна: США
Жанр: ужасы, триллер
Продолжительность: 01:23:23
Перевод: профессиональный двухголосый, авторский

Режиссёр: Уильям Уэсли

В ролях: Тед Вернон, Майкл Дэвид Симс, Ричард Видан, Кристина Сэнборн, Виктория Кристиан, Дэвид Джеймс Кэмпбелл, Б.Дж. Тернер, Дэкс Вернон, Тони Сантори, Фил Зендерленд, Майк Балог, Дон Херберт, Ховард Е. Хэллер, Бэмби Дарро

Описание: Пятеро террористов нападают на базу ВВС США и, перестреляв много людей, похищают 3 миллиона долларов. К ним в заложники попадают пилот и его дочь, которые вынуждены вместе с грабителями покинуть базу на похищенном самолёте. По дороге в Мексику один из террористов, «кидая» своих подельников, выпрыгивает на парашюте из самолёта вместе с деньгами. Его коллеги, придя в ярость от предательства партнёра, устремляются за ним в погоню. Той же ночью они настигают его на заброшенной ферме, окружённой огромным кукурузным полем, на котором стоят в особом порядке огородные пугала. Отчаянные парни даже не подозревают, в какую кровавую охоту они ввязались...



Качество: BDRip 720p Сравнение с исходником
Формат: MKV
Видео: MPEG-4 AVC, 5075 Кбит/с, 1280x720, 23,976 кадра/с
Аудио 1: русский, AC3, 192 kbps, 2 ch, 48 kHz [профессиональный двухголосый, HTB+]
Аудио 2: русский, AC3, 224 kbps, 2 ch, 48 kHz [авторский, Вартан Дохалов]
Аудио 3: английский, AC3, 448 kbps, 6 ch, 48 kHz [оригинал]
Субтитры: английские
Общее
Уникальный идентификатор : 240647934307648668343046228440804518506 (0xB50B1B34C28D96DE93A9340111286A6A)
Полное имя : D:\Video\Пугала.1988 BDRip.720p by msltel.mkv
Формат : Matroska
Версия формата : Version 4 / Version 2
Размер файла : 3,46 Гбайт
Продолжительность : 1 ч. 23 м.
Общий поток : 5940 Кбит/сек
Название фильма : Rip by msltel
Дата кодирования : UTC 2016-11-13 15:12:52
Программа кодирования : mkvmerge v8.2.0 ('World of Adventure') 64bit
Библиотека кодирования : libebml v1.3.1 + libmatroska v1.4.2

Видео
Идентификатор : 1
Формат : AVC
Формат/Информация : Advanced Video Codec
Профиль формата : High@L4.1
Параметр CABAC формата : Да
Параметр ReFrames формата : 9 кадров
Идентификатор кодека : V_MPEG4/ISO/AVC
Продолжительность : 1 ч. 23 м.
Битрейт : 5075 Кбит/сек
Ширина : 1280 пикселей
Высота : 720 пикселей
Соотношение сторон : 16:9
Режим частоты кадров : Постоянный
Частота кадров : 23,976 (24000/1001) кадра/сек
Цветовое пространство : YUV
Субдискретизация насыщенности : 4:2:0
Битовая глубина : 8 бит
Тип развёртки : Прогрессивная
Бит/(Пиксели*Кадры) : 0.230
Размер потока : 2,96 Гбайт (85%)
Библиотека кодирования : x264 core 146 r2538 121396c
Настройки программы : cabac=1 / ref=9 / deblock=1:-3:-3 / analyse=0x3:0x113 / me=umh / subme=10 / psy=1 / psy_rd=1.00:0.15 / mixed_ref=1 / me_range=32 / chroma_me=1 / trellis=2 / 8x8dct=1 / cqm=0 / deadzone=21,11 / fast_pskip=0 / chroma_qp_offset=-3 / threads=6 / lookahead_threads=1 / sliced_threads=0 / nr=0 / decimate=1 / interlaced=0 / bluray_compat=0 / constrained_intra=0 / bframes=11 / b_pyramid=2 / b_adapt=2 / b_bias=0 / direct=1 / weightb=1 / open_gop=0 / weightp=2 / keyint=230 / keyint_min=23 / scenecut=40 / intra_refresh=0 / rc_lookahead=40 / rc=crf / mbtree=0 / crf=20.0 / qcomp=0.60 / qpmin=0 / qpmax=69 / qpstep=4 / vbv_maxrate=50000 / vbv_bufsize=62500 / crf_max=0.0 / nal_hrd=none / filler=0 / ip_ratio=1.40 / pb_ratio=1.30 / aq=1:1.00
Язык : English
Default : Да
Forced : Нет

Аудио #1
Идентификатор : 2
Формат : AC-3
Формат/Информация : Audio Coding 3
Расширение режима : CM (complete main)
Параметр Endianness формата : Big
Идентификатор кодека : A_AC3
Продолжительность : 1 ч. 23 м.
Вид битрейта : Постоянный
Битрейт : 192 Кбит/сек
Каналы : 2 канала
Расположение каналов : Front: L R
Частота : 48,0 КГц
Частота кадров : 31,250 кадров/сек (1536 spf)
Метод сжатия : С потерями
Размер потока : 115 Мбайт (3%)
Заголовок : DVO (HTB+)
Язык : Russian
Default : Да
Forced : Нет

Аудио #2
Идентификатор : 3
Формат : AC-3
Формат/Информация : Audio Coding 3
Расширение режима : CM (complete main)
Параметр Endianness формата : Big
Идентификатор кодека : A_AC3
Продолжительность : 1 ч. 23 м.
Вид битрейта : Постоянный
Битрейт : 224 Кбит/сек
Каналы : 2 канала
Расположение каналов : Front: L R
Частота : 48,0 КГц
Частота кадров : 31,250 кадров/сек (1536 spf)
Метод сжатия : С потерями
Размер потока : 134 Мбайт (4%)
Заголовок : AVO (Вартан Дохалов)
Язык : Russian
Default : Нет
Forced : Нет

Аудио #3
Идентификатор : 4
Формат : AC-3
Формат/Информация : Audio Coding 3
Расширение режима : CM (complete main)
Параметр Endianness формата : Big
Идентификатор кодека : A_AC3
Продолжительность : 1 ч. 23 м.
Вид битрейта : Постоянный
Битрейт : 448 Кбит/сек
Каналы : 6 каналов
Расположение каналов : Front: L C R, Side: L R, LFE
Частота : 48,0 КГц
Частота кадров : 31,250 кадров/сек (1536 spf)
Метод сжатия : С потерями
Размер потока : 267 Мбайт (8%)
Заголовок : original
Язык : English
Default : Нет
Forced : Нет

Текст
Идентификатор : 5
Формат : UTF-8
Идентификатор кодека : S_TEXT/UTF8
Идентификатор кодека/Информация : UTF-8 Plain Text
Продолжительность : 1 ч. 13 м.
Битрейт : 39 бит/сек
Count of elements : 689
Размер потока : 21,1 Кбайт (0%)
Заголовок : английские
Язык : English
Default : Нет
Forced : Нет

МОИ РЕЛИЗЫ
ВКОНТАКТЕ
pb.wtf



Скачать Пугала через торрент http://s008.radikal.ru/i303/1611/4f/edad074ebca9.jpg Скачать фильм Пугала через торрент бесплантно в хорошем качестве Описание: Пятеро террористов нападают на базу ВВС США и, перестреляв много людей, похищают 3 миллиона долларов. К ним в заложники попадают ... 7.3 10 9
Info! Золотая раздача, скачанное не засчитывается.
Торрент: Зарегистрирован [2016-11-14 08:17] · скачан: 64 раз
Статус: √ проверено
Размер: 3.46 GB
Как cкачать? Как скачать Пугала через торрент | qTorrent

% Раздел Тема Автор DL S | L
Фильмы [HD 720p, 1080p] (Хороший звук DUB, MVO) [ 10.88 GB ] Пугала / Scarecrows [1988 BDRip 1080p by msltel] DVO AVO msltel Скачать
1 | 0

28-11-2019 20:33  

Отключить всю рекламу на сайте

    Дорогой пользователь! Огромная просьба, поблагодарите релизера, оцените раздачу и оставьте свои комментарий, если Вы скачали Пугала через торрент бесплатно! Внесите свою лепту в развитие PiratBit!
    Комментировать посты могут только пользователи прошедшие не сложную регистрацию
    Показать сообщения:    

    Пугала через торрент
    Скачать бесплатно Пугала
    Пугала скачать торрент
    Пугала смотреть онлайн
    Cкачать фильм Пугала бесплатно
    Пугала скачать торрент в хорошем качестве
    Пугала смотреть онлайн бесплатно в хорошем качестве


    Вы не можете начинать темы
    Вы не можете отвечать на сообщения
    Вы не можете редактировать свои сообщения
    Вы не можете удалять свои сообщения
    Вы не можете голосовать в опросах
    Вы не можете прикреплять файлы к сообщениям
    Вы можете скачивать файлы