новый адрес пиратбит piratbit
Мега распродажа FORZA HORIZON 4 ULTIMATE+ВСЕ DLC+ОНЛАЙН всего за 499р. 349 руб. (супер цена). Внимание количество ограничено!!!

iTunes

1+1

iTunes

мы

iTunes

1

iTunes

Чернобыль

iTunes

Ральф против интернета

Лицензия

ПШазам

Лицензия

Игра престолов

Лицензия

30
pack

ВАЖНО

!!Акция!!

Alien_RageХит недели

RePack

Resident Evil 21

ИГРА 18+

pack

RePack

Metro:Exodus

!!Акция!!

Alien_Rage

RePack

fifa19

RePack

Assassins Creed: Odyssey

RePack

NEED FOR SPEED™ PAYBACK

3 сезон

9 сезон

Бесстыжие 9 сезон

Все сериалы

все сериалы на PB.wtf

RePack

FAR CRY 5
Ребята, катастрофически не хватает 1900р. для оплаты серверов за Октябрь (всвязи с блокировками трафик упал в 3 раза), 1-2р., выручайте.
  

Авиценна (Камил Ярматов) [1956, СССР, драма, биография, SATRip от AVP Studio] pb.wtf

Авиценна через торрент pb.wtf

Размер: 1.09 GB | Добавлен: 3 года назад | Торрент скачан:11 раз
Скачать  

14-11-2016 08:32 Авиценна Скачать торрент  

Авиценна
Страна: СССР
Производство: Ташкентская киностудия

Жанр: драма, биография
Год выпуска: 1956
Продолжительность: 01:17:24

Перевод: Не требуется
Cубтитры: нет
Оригинальная аудиодорожка: русский

Режиссер: Камил Ярматов

В ролях:
Марат Арипов, Тулкун Таджиев, Аббас Бакиров, Мухаммеджан Касымов, Раззак Хамраев, Обид Джалилов, Рахим Пирмухамедов, Кудрат Ходжаев, Алим Ходжаев...
Полный список актёров

Описание:
Цветной фильм посвящен философу, врачу, ученому Востока и поэту Абу-Али Ибн-Сине, жившему в Бухаре в 10 веке и известному в Европе под именем Авиценны.
Первый раз фильм был восстановлен в 1964 году, затем - в 1979 на киностудии им. М. Горького (в черно-белом варианте).

Источник: DVB
Качество видео: SATRip
Формат видео: AVI

Видео: 704x528 (4:3), 25 fps, XviD ~ 1808 kbps avg, 0.195 bit/pixel
Аудио: 48 kHz, Dolby Digital AC3 2.0, 192 kbps

Раздача от:
Общее
Полное имя : Avicenna.1956.SATRip_[New-team]_by_AVP_Studio.avi
Формат : AVI
Формат/Информация : Audio Video Interleave
Размер файла : 1,09 Гбайт
Продолжительность : 1 ч. 17 м.
Общий поток : 2012 Кбит/сек

Видео
Идентификатор : 0
Формат : MPEG-4 Visual
Профиль формата : Advanced Simple@L5
Параметр BVOP формата : 1
Параметр QPel формата : Нет
Параметр GMC формата : Без точки перехода
Параметр матрицы формата : Выборочная
Идентификатор кодека : XVID
Идентификатор кодека/Подсказка : XviD
Продолжительность : 1 ч. 17 м.
Битрейт : 1808 Кбит/сек
Ширина : 704 пикселя
Высота : 528 пикселей
Соотношение сторон : 4:3
Частота кадров : 25,000 кадров/сек
Цветовое пространство : YUV
Субдискретизация насыщенности : 4:2:0
Битовая глубина : 8 бит
Тип развёртки : Прогрессивная
Метод сжатия : С потерями
Бит/(Пиксели*Кадры) : 0.195
Размер потока : 1001 Мбайт (90%)
Библиотека кодирования : XviD 1.2.1 (UTC 2008-12-04)

Аудио
Идентификатор : 1
Формат : AC-3
Формат/Информация : Audio Coding 3
Расширение режима : CM (complete main)
Параметр Endianness формата : Big
Идентификатор кодека : 2000
Продолжительность : 1 ч. 17 м.
Вид битрейта : Постоянный
Битрейт : 192 Кбит/сек
Каналы : 2 канала
Расположение каналов : Front: L R
Частота : 48,0 КГц
Частота кадров : 31,250 кадров/сек (1536 spf)
Битовая глубина : 16 бит
Метод сжатия : С потерями
Размер потока : 106 Мбайт (10%)
Выравнивание : Соединение по промежуткам
Продолжительность промежутка : 32 мс. (0,80 видеокадр)
pb.wtf



Скачать Авиценна через торрент http://s019.radikal.ru/i602/1611/2b/e933afb03df5.png Скачать фильм Авиценна через торрент бесплантно в хорошем качестве Описание:Цветной фильм посвящен философу, врачу, ученому Востока и поэту Абу-Али Ибн-Сине, жившему в Бухаре в 10 веке и известному в Европе ... 5 10 1
Info! Золотая раздача, скачанное не засчитывается.
Торрент: Зарегистрирован [2016-11-14 08:32] · скачан: 11 раз
Статус: √ проверено
Размер: 1.09 GB
Как cкачать? Как скачать Авиценна через торрент | qTorrent

% Раздел Тема Автор DL S | L
Фильмы 2013 [DVDrip, WEB-DLRip, HDrip] [ 2.05 GB ] Лекарь: Ученик Авиценны / The Physician [2013 HDRip ] rudolf4iks Скачать
1 | 0
Кино СССР [ 1.09 GB ] Авиценна [1956 СССР биография SATRip-AVC от AVP Studio] AVP Studio Скачать
1 | 0
Кино СССР [ 746 MB ] Авиценна [1956 СССР биография SATRip от AVP Studio] AVP Studio Скачать
1 | 0
Фильмы (Blu-ray, BD-Remux, HDDVD) [ 33.01 GB ] Лекарь: Ученик Авиценны / The Physician [2013 BDRemux 1080р] ESP Transfer / DUB / Russian Mafia Скачать
1 | 0
Фильмы 2013 [DVDrip, WEB-DLRip, HDrip] [ 2.92 GB ] Лекарь: Ученик Авиценны / The Physician [2013 BDRip-AVC] DUB potroks Скачать
2 | 0
Фильмы 2013 [DVDrip, WEB-DLRip, HDrip] [ 2.16 GB ] Лекарь: Ученик Авиценны / The Physician [2013 BDRip ] coc900 Скачать
1 | 0
Фильмы 2013 [DVDrip, WEB-DLRip, HDrip] [ 2.05 GB ] Лекарь: Ученик Авиценны / The Physician [2013 Германия WEB-DLRip [ - / ] Ворон Скачать
1 | 0


>> Регистрируемся здесь <<






Отзывы и комментарии о схеме читаем и пишем здесь: ---> Отзывы и комментарии о схеме

Новые благодарочки в телеграм довольных пользователей:
скриншот   скриншот   скриншот   скриншот   скриншот
    Дорогой пользователь! Огромная просьба, поблагодарите релизера, оцените раздачу и оставьте свои комментарий, если Вы скачали Авиценна через торрент бесплатно! Внесите свою лепту в развитие PiratBit!
    Комментировать посты могут только пользователи прошедшие не сложную регистрацию
    Показать сообщения:    

    Авиценна через торрент
    Скачать бесплатно Авиценна
    Авиценна скачать торрент
    Авиценна смотреть онлайн
    Cкачать фильм Авиценна бесплатно
    Авиценна скачать торрент в хорошем качестве
    Авиценна смотреть онлайн бесплатно в хорошем качестве


    Вы не можете начинать темы
    Вы не можете отвечать на сообщения
    Вы не можете редактировать свои сообщения
    Вы не можете удалять свои сообщения
    Вы не можете голосовать в опросах
    Вы не можете прикреплять файлы к сообщениям
    Вы можете скачивать файлы