Ссылка на приватное зеркало нашего сайта всего за 1$. Внимание количество ограничено!!!

2 сезон

iTunes

1 сезон

1

iTunes

iTunes

iTunes

1 сезон

RePack

30

ИГРА 18+

pack

ВАЖНО

!!Акция!!

Alien_RageХит недели

RePack

MK11
pack

Забери бонус

RePack

jed

!!Акция!!

Alien_Rage

RePack

fifa19

RePack

Assassins Creed: Odyssey

RePack

NEED FOR SPEED™ PAYBACK

4 сезон

9 сезон

Бесстыжие 9 сезон

Все сериалы

все сериалы на PB.wtf

RePack

FAR CRY 5
  

Мажор-2 / Серии: 1-12 из 12 (Николай Булыгин, Максим Полинский) [2016, детектив,драма, SATRip-AVC] pb.wtf

Мажор-2 через торрент pb.wtf

Размер: 7.64 GB | Добавлен: 3 года 10 мес. назад | Торрент скачан:1362 раза
Скачать  

15-11-2016 00:32 Мажор-2 Скачать торрент  

Мажор-2


Год выпуска: 2016
Производство: Россия, Продюсерская компания "СРЕДА"
Жанр: детектив
Продолжительность: ~00:48:00
Субтитры: нет



Режиссёр: Николай Булыгин, Максим Полинский



В ролях: Павел Прилучный , Карина Разумовская , Дмитрий Шевченко , Денис Шведов , Александр Обласов , Никита Панфилов , Дана Абызова , Олег Гаас , Анна Цуканова-Котт , Любовь Аксенова , Игорь Жижикин, Дмитрий Лысенков , Анна Вартанян , Вера Брежнева

Описание: Неожиданно для всех Игоря Соколовского выпускают из СИЗО, сняв все обвинения в покушении на жизнь бизнесмена Игнатьева. Но Мажор выходит с одним-единственным желанием — отомстить, так как он считает Игнатьева виновным в смерти отца и матери. Соколовский возвращается на службу в полицию, возглавляет бизнес отца, который перешел ему по наследству, заводит красивый и яркий роман с Катей. Мучается из-за отношений с Викой — они так и не смогли забыть друг друга. И день за днем торопит развязку — уничтожение Игнатьева. Но что будет после того, как цель достигнута? После того, как придется посмотреть на победу с другой стороны.









Релиз от:




Качество: SATRip-AVC
Формат: MKV
Видео кодек: H.264
Аудио кодек: AC3
Видео: MPEG4 Video (H264), 720x400, 25fps,1600 Kbps,bit/pixel 0.222
Аудио: AC3 48000Hz, stereo, 192kbps,2 ch


Общее
Уникальный идентификатор : 182390684841235768286508744752554123669 (0x89372B0BF6BB9F3B9EAFB5B1060D2195)
Полное имя : H:\Мажор-2\01 серия_Мажор-2_rip by_Aleksan55.mkv
Формат : Matroska
Версия формата : Version 2
Размер файла : 620 Мбайт
Продолжительность : 48 м.
Общий поток : 1794 Кбит/сек
Дата кодирования : UTC 2016-11-14 21:49:47
Программа кодирования : mkvmerge v7.8.0 ('River Man') 32bit built on Apr 3 2015 12:11:22
Библиотека кодирования : libebml v1.3.1 + libmatroska v1.4.2

Видео
Идентификатор : 1
Формат : AVC
Формат/Информация : Advanced Video Codec
Профиль формата : High@L3.1
Параметр CABAC формата : Да
Параметр ReFrames формата : 12 кадров
Идентификатор кодека : V_MPEG4/ISO/AVC
Продолжительность : 48 м.
Битрейт : 1600 Кбит/сек
Ширина : 720 пикселей
Высота : 400 пикселей
Соотношение сторон : 16:9
Режим частоты кадров : Постоянный
Частота кадров : 25,000 кадров/сек
Цветовое пространство : YUV
Субдискретизация насыщенности : 4:2:0
Битовая глубина : 8 бит
Тип развёртки : Прогрессивная
Бит/(Пиксели*Кадры) : 0.222
Размер потока : 541 Мбайт (87%)
Библиотека кодирования : x264 core 148 r2638 7599210
Настройки программы : cabac=1 / ref=12 / deblock=1:-1:-1 / analyse=0x3:0x133 / me=umh / subme=9 / psy=1 / psy_rd=1.00:0.15 / mixed_ref=0 / me_range=32 / chroma_me=1 / trellis=2 / 8x8dct=1 / cqm=0 / deadzone=21,11 / fast_pskip=0 / chroma_qp_offset=-3 / threads=3 / lookahead_threads=3 / sliced_threads=0 / nr=0 / decimate=1 / interlaced=0 / bluray_compat=0 / constrained_intra=0 / bframes=12 / b_pyramid=2 / b_adapt=1 / b_bias=0 / direct=3 / weightb=1 / open_gop=0 / weightp=2 / keyint=250 / keyint_min=25 / scenecut=40 / intra_refresh=0 / rc_lookahead=40 / rc=2pass / mbtree=1 / bitrate=1600 / ratetol=1.0 / qcomp=0.85 / qpmin=0 / qpmax=40 / qpstep=4 / cplxblur=20.0 / qblur=0.5 / ip_ratio=1.40 / aq=1:1.20
Default : Да
Forced : Нет
Цветовой диапазон : Limited
Основные цвета : BT.601 PAL
Характеристики трансфера : BT.470 System B, BT.470 System G
Коэффициенты матрицы : BT.601

Аудио
Идентификатор : 2
Формат : AC-3
Формат/Информация : Audio Coding 3
Расширение режима : CM (complete main)
Параметр Endianness формата : Big
Идентификатор кодека : A_AC3
Продолжительность : 48 м.
Вид битрейта : Постоянный
Битрейт : 192 Кбит/сек
Каналы : 2 канала
Расположение каналов : Front: L R
Частота : 48,0 КГц
Метод сжатия : С потерями
Размер потока : 66,4 Мбайт (11%)
Default : Да
Forced : Нет
Внимание! Раздача ведётся путём добавления новых серий; при каждом добавлении создаётся новый торрент.
Чтобы начать докачку новой серии, пользователям необходимо сделать следующее:
1. Остановить скачивание;
2. Удалить старый торрент у себя из клиента (старые серии удалять не надо);
3. Скачать новый торрент и запустить его у себя в клиенте вместо старого, при этом указать клиенту путь в старую папку куда и должно происходить скачивание новых серий. Ваш клиент при этом должен произвести хеширование (проверку) старой папки и будет докачивать только те серии, которых у вас ещё нет. Старые серии при этом не удаляются, а продолжают раздаваться! Eсли вы уже удалили старые серии, то предотвратить повторную закачку старых серий можно, отжав галочку в соответствующих местах при запуске нового торрента.
Рекламы нет.Добавлены 11-12 серия.pb.wtf



Скачать Мажор-2 через торрент http://s020.radikal.ru/i707/1611/b0/5d935ea776bf.jpg Скачать фильм Мажор-2 через торрент бесплантно в хорошем качестве Описание: Неожиданно для всех Игоря Соколовского выпускают из СИЗО, сняв все обвинения в покушении на жизнь бизнесмена Игнатьева. Но Мажор ... 9.4 10 59
Info! Золотая раздача, скачанное не засчитывается.
Торрент: Зарегистрирован [2016-11-22 21:16] · скачан: 1 362 раз
Статус: √ проверено
Размер: 7.64 GB
Как cкачать? Как скачать Мажор-2 через торрент | qTorrent

% Раздел Тема Автор DL S | L
Зарубежные сериалы [ 50.04 GB ] Форс-мажоры / Костюмы / Suits / Сезон: 2 / Серии: 1-16 из 16 [2012 BDRip 1080p] MVO [TVShows] bober100 Скачать
1 | 0
Наши сериалы [ 8.58 GB ] Мажор / Сезон: 2 / Серии: 1-12 из 12 [2016 HDTVRip] bober100 Скачать
1 | 0
Наши сериалы [ 14.8 GB ] Мажор / Сезон 2 / Серии 1-12 из 12 [2016 Россия WEB-DL 720p] GEKADOL Скачать
2 | 0
Наши сериалы [ 8.15 GB ] Мажор / Сезон 2 / Серии 1-12 из 12 [2016 SATRip] bober100 Скачать
1 | 0


Последний раз редактировалось: aleksan55 (2016-11-22 21:15), всего редактировалось 3 раз(а)

28-11-2019 20:33  

Отключить всю рекламу на сайте

16-11-2016 08:28 Мажор-2 Скачать торрент  

класс ! советую. хорошее продолжение!pb.wtf



22-11-2016 11:59 Мажор-2 Скачать торрент  

приветик а что как слабо добавление идет когда я начинал его смотреть как то иначе былоpb.wtf



    Дорогой пользователь! Огромная просьба, поблагодарите релизера, оцените раздачу и оставьте свои комментарий, если Вы скачали Мажор-2 через торрент бесплатно! Внесите свою лепту в развитие PiratBit!
    Комментировать посты могут только пользователи прошедшие не сложную регистрацию
    Показать сообщения:    

    Мажор-2 через торрент
    Скачать бесплатно Мажор-2
    Мажор-2 скачать торрент
    Мажор-2 смотреть онлайн
    Cкачать фильм Мажор-2 бесплатно
    Мажор-2 скачать торрент в хорошем качестве
    Мажор-2 смотреть онлайн бесплатно в хорошем качестве


    Вы не можете начинать темы
    Вы не можете отвечать на сообщения
    Вы не можете редактировать свои сообщения
    Вы не можете удалять свои сообщения
    Вы не можете голосовать в опросах
    Вы не можете прикреплять файлы к сообщениям
    Вы можете скачивать файлы