1 сезон

1 сезон

iTunes

1

iTunes

Кинопоиск HD

iTunes

13

1 сезон

RePack

30

Deluxe

ВАЖНО

ИГРА 18+

pack

RePack

MK11
pack

Легкие деньги

RePack

jed

RePack

fifa19

RePack

RDR2

RePack

NEED FOR SPEED™ PAYBACK

4 сезон

9 сезон

Бесстыжие 9 сезон

Все сериалы

все сериалы на PB.wtf

RePack

FAR CRY 5
  
Magnet ссылка

Искатели (Михаил Шапиро) [1956, СССР, драма, военный, биография, SATRip от AVP Studio] pb.wtf

Искатели через торрент pb.wtf

Размер: 1.09 GB | Добавлен: 4 года 5 мес. назад | Торрент скачан:10 раз
Скачать  

15-11-2016 08:17 Искатели Скачать торрент  

Искатели
Страна: СССР
Производство: Ленфильм

Жанр: драма, военный, биография
Год выпуска: 1956
Продолжительность: 01:37:13

Перевод: Не требуется
Cубтитры: нет
Оригинальная аудиодорожка: русский

Режиссер: Михаил Шапиро

В ролях:
Евгений Матвеев, Игорь Горбачёв, Маргарита Юрьева, Майя Блинова, Нина Мамаева, Давид Волосов, Михаил Екатерининский, Ефим Копелян, Владимир Косарев, Игнат Лейрер, Георгий Самойлов, Александр Соколов, Глеб Флоринский, Антоний Ходурский, Виктор Чекмарёв, Герман Хованов...
Полный список актёров

Описание:
По одноименному роману Даниила Гранина.
Во время второй мировой войны в поисках места повреждения телефонной линии погибает друг инженера Лобанова. Наступают мирные дни. Лобанов отказывается от работы в НИИ и устраивается на опытный завод, где по его мнению есть все возможности для создания прибора, определяющего на расстоянии повреждения в электрических кабелях. Молодой ученый зачисляется заведующим лаборатории и пока не предполагает, что основные силы будут направлены на борьбу с бюрократизмом и очковтирательством.

Источник: DVB
Качество видео: SATRip
Формат видео: AVI

Видео: 672x496 (4:3), 25 fps, XviD ~ 1400 kbps avg, 0.168 bit/pixel
Аудио: 48 kHz, Dolby Digital AC3 2.0, 192 kbps

Раздача от:
Общее
Полное имя : Iskateli.1956.SATRip_[New-team]_by_AVP_Studio.avi
Формат : AVI
Формат/Информация : Audio Video Interleave
Размер файла : 1,09 Гбайт
Продолжительность : 1 ч. 37 м.
Общий поток : 1601 Кбит/сек
Программа кодирования : VirtualDubMod 1.5.10.3 | www.virtualdub-fr.org || (build 2550/release)
Библиотека кодирования : VirtualDubMod build 2550/release

Видео
Идентификатор : 0
Формат : MPEG-4 Visual
Профиль формата : Advanced Simple@L5
Параметр BVOP формата : 1
Параметр QPel формата : Нет
Параметр GMC формата : Без точки перехода
Параметр матрицы формата : Выборочная
Идентификатор кодека : XVID
Идентификатор кодека/Подсказка : XviD
Продолжительность : 1 ч. 37 м.
Битрейт : 1400 Кбит/сек
Ширина : 672 пикселя
Высота : 496 пикселей
Соотношение сторон : 4:3
Частота кадров : 25,000 кадров/сек
Цветовое пространство : YUV
Субдискретизация насыщенности : 4:2:0
Битовая глубина : 8 бит
Тип развёртки : Прогрессивная
Метод сжатия : С потерями
Бит/(Пиксели*Кадры) : 0.168
Размер потока : 973 Мбайт (87%)
Библиотека кодирования : XviD 1.2.1 (UTC 2008-12-04)

Аудио
Идентификатор : 1
Формат : AC-3
Формат/Информация : Audio Coding 3
Расширение режима : CM (complete main)
Параметр Endianness формата : Big
Идентификатор кодека : 2000
Продолжительность : 1 ч. 37 м.
Вид битрейта : Постоянный
Битрейт : 192 Кбит/сек
Каналы : 2 канала
Расположение каналов : Front: L R
Частота : 48,0 КГц
Частота кадров : 31,250 кадров/сек (1536 spf)
Битовая глубина : 16 бит
Метод сжатия : С потерями
Размер потока : 134 Мбайт (12%)
Выравнивание : Разделение по промежуткам
Продолжительность промежутка : 40 мс. (1,00 видеокадр)
Время предзагрузки промежутка : 500 мс
pb.wtf



Скачать Искатели через торрент http://s018.radikal.ru/i504/1611/f1/12fe0329d760.png Скачать фильм Искатели через торрент бесплантно в хорошем качестве Описание:По одноименному роману Даниила Гранина.Во время второй мировой войны в поисках места повреждения телефонной линии погибает друг ... 5 10 1
Info! Золотая раздача, скачанное не засчитывается.
Торрент: Зарегистрирован [2016-11-15 08:17] · скачан: 10 раз
Статус: √ проверено
Размер: 1.09 GB
Как cкачать? Как скачать Искатели через торрент | UTorrent

% Раздел Тема Автор DL S | L
Фантастика [ 383 MB ] Дмитрий Кружевский - Искатель 2 | Потерянный [Сергей Ларионов 2020 64 kbps MP3] urapavel Скачать
2 | 0
Фантастика [ 549 MB ] Дмитрий Кружевский - Искатель [Ларионов Сергей 2020 64 kbps MP3] urapavel Скачать
2 | 0
Другое [ 926 MB ] Журнал|Искатель [2017 PDF] urapavel Скачать
1 | 0
Зарубежные сериалы [ 3.5 GB ] Искатели правды / Truth Seekers / Сезон: 1 / Серии 1-8 из 8 [2020 WEB-DLRip-AVC] MVO [LostFilm] GEKADOL Скачать
1 | 0
Зарубежные сериалы [ 15.54 GB ] Искатели правды / Искатели истины / Truth Seekers / Сезон: 1 / Серии: 1-8 из 8 [2020 WEB-DL 1080p] 2xMVO [NewStudio Jaskier] +DVO [IdeaFilm] bober100 Скачать
1 | 0
Зарубежные сериалы [ 8.16 GB ] Искатели правды / Искатели истины / Truth Seekers / Сезон: 1 / Серии: 1-8 из 8 [2020 WEB-DL 720p] 2xMVO [NewStudio Jaskier] +DVO [IdeaFilm] bober100 Скачать
1 | 0
Зарубежные сериалы [ 2.87 GB ] Искатели правды / Truth Seekers / Сезон: 1 / Серии: 1-8 из 8 [2020 WEB-DLRip] MVO [Jaskier] bober100 Скачать
2 | 0

28-11-2019 20:33  

Отключить всю рекламу на сайте

    Дорогой пользователь! Огромная просьба, поблагодарите релизера, оцените раздачу и оставьте свои комментарий, если Вы скачали Искатели через торрент бесплатно! Внесите свою лепту в развитие PiratBit!
    Комментировать посты могут только пользователи прошедшие не сложную регистрацию
    Показать сообщения:    

    Искатели через торрент
    Скачать бесплатно Искатели
    Искатели скачать торрент
    Искатели смотреть онлайн
    Cкачать фильм Искатели бесплатно
    Искатели скачать торрент в хорошем качестве
    Искатели смотреть онлайн бесплатно в хорошем качестве


    Вы не можете начинать темы
    Вы не можете отвечать на сообщения
    Вы не можете редактировать свои сообщения
    Вы не можете удалять свои сообщения
    Вы не можете голосовать в опросах
    Вы не можете прикреплять файлы к сообщениям
    Вы можете скачивать файлы