Ссылка на приватное зеркало нашего сайта всего за 1$. Внимание количество ограничено!!!

2 сезон

iTunes

1 сезон

1

2 сезон

2 сезон

iTunes

1 сезон

RePack

30

Новинка

ВАЖНО

ИГРА 18+

pack

RePack

MK11
pack

Забери бонус

RePack

jed

!!Акция!!

Alien_Rage

RePack

fifa19

RePack

Assassins Creed: Odyssey

RePack

NEED FOR SPEED™ PAYBACK

4 сезон

9 сезон

Бесстыжие 9 сезон

Все сериалы

все сериалы на PB.wtf

RePack

FAR CRY 5
  

Saxon - Heavy Metal Thunder (2CD) - 2015/ FLAC/ image +.cue/ lossless/ Heavy Metal pb.wtf

Saxon - Heavy Metal Thunder через торрент pb.wtf

Размер: 882 MB | Добавлен: 4 года назад | Торрент скачан:14 раз
Скачать  

15-11-2016 09:13 Saxon - Heavy Metal Thunder Скачать торрент  


Saxon - Heavy Metal Thunder (2CD)


Год издания: 2015
Страна: UK
Жанр: Heavy Metal
Продолжительность: 01:56:28
Лейбл издания: UDR GmbH
Страна-выпуска диска: Germany
Номер по каталогу: UDR 0420 2CD
Формат: FLAC
Битрейт аудио: Lossless
Тип рипа: image +.cue
Наличие сканов в содержимом раздачи: да


01.Heavy Metal Thunder(4:16)
02.Strong Arm of the Law(4:28)
03.Power & the Glory(6:02)
04.And the Bands Played On(2:56)
05.Crusader(6:43)
06.Dallas 1PM(6:21)
07.Princess of the Night(4:13)
08.Wheels of Steel(5:57)
09.747 (Strangers in the Night)(5:05)
10.Motorcycle Man(3:50)
11.Never Surrender(3:40)
12.Denim & Leather(5:23)
13.Backs to the Wall(3:09)

01.Sacrifice(5:48)
02.Power & The Glory(4:57)
03.Heavy Metal Thunder(2:58)
04.Battalions Of Steel(4:24)
05.Motorcycle Man(3:45)
06.And The Bands Played On(2:48)
07.To Hell And Back Again(3:46)
08.747 (Strangers In The Night)(4:58)
09.Crusader(5:35)
10.Wheels Of Steel(5:40)
11.Prince Of The Night(3:51)
12.Denim And Leather(05:55)

Код:

Exact Audio Copy V1.1 from 23. June 2015

EAC extraction logfile from 23. May 2016, 18:19

SAXON / Heavy Metal Thunder

Used drive  : HL-DT-STDVDRAM GH22NS70   Adapter: 1  ID: 1

Read mode               : Secure
Utilize accurate stream : Yes
Defeat audio cache      : Yes
Make use of C2 pointers : No

Read offset correction                      : 667
Overread into Lead-In and Lead-Out          : No
Fill up missing offset samples with silence : Yes
Delete leading and trailing silent blocks   : No
Null samples used in CRC calculations       : Yes
Used interface                              : Native Win32 interface for Win NT & 2000

Used output format              : User Defined Encoder
Selected bitrate                : 768 kBit/s
Quality                         : High
Add ID3 tag                     : No
Command line compressor         : C:\Program Files (x86)\Exact Audio Copy\FLAC\FLAC.EXE
Additional command line options : -6 -V %source%

TOC of the extracted CD

     Track |   Start  |  Length  | Start sector | End sector
    ---------------------------------------------------------
        1  |  0:00.00 |  4:16.22 |         0    |    19221
        2  |  4:16.22 |  4:27.41 |     19222    |    39287
        3  |  8:43.63 |  6:01.65 |     39288    |    66427
        4  | 14:45.53 |  2:55.71 |     66428    |    79623
        5  | 17:41.49 |  6:43.00 |     79624    |   109848
        6  | 24:24.49 |  6:20.61 |    109849    |   138409
        7  | 30:45.35 |  4:13.33 |    138410    |   157417
        8  | 34:58.68 |  5:56.60 |    157418    |   184177
        9  | 40:55.53 |  5:05.08 |    184178    |   207060
       10  | 46:00.61 |  3:49.61 |    207061    |   224296
       11  | 49:50.47 |  3:39.50 |    224297    |   240771
       12  | 53:30.22 |  5:23.18 |    240772    |   265014
       13  | 58:53.40 |  3:08.58 |    265015    |   279172

Range status and errors

Selected range

     Filename E:\Música\EAC\Saxon\SAXON - Heavy Metal Thunder.wav

     Peak level 100.0 %
     Extraction speed 7.4 X
     Range quality 100.0 %
     Test CRC EC9E8C85
     Copy CRC EC9E8C85
     Copy OK

No errors occurred

AccurateRip summary

Track  1  not present in database
Track  2  not present in database
Track  3  not present in database
Track  4  not present in database
Track  5  not present in database
Track  6  not present in database
Track  7  not present in database
Track  8  not present in database
Track  9  not present in database
Track 10  not present in database
Track 11  not present in database
Track 12  not present in database
Track 13  not present in database

None of the tracks are present in the AccurateRip database

End of status report

---- CUETools DB Plugin V2.1.6

[CTDB TOCID: lyi6V3n.nCAzDuoq6KrrprMDaDU-] found
Submit result: lyi6V3n.nCAzDuoq6KrrprMDaDU- has been confirmed
Track | CTDB Status
  1   | (9/9) Accurately ripped
  2   | (9/9) Accurately ripped
  3   | (9/9) Accurately ripped
  4   | (9/9) Accurately ripped
  5   | (9/9) Accurately ripped
  6   | (9/9) Accurately ripped
  7   | (9/9) Accurately ripped
  8   | (9/9) Accurately ripped
  9   | (9/9) Accurately ripped
10   | (9/9) Accurately ripped
11   | (9/9) Accurately ripped
12   | (9/9) Accurately ripped
13   | (9/9) Accurately ripped

Код:

Exact Audio Copy V1.1 from 23. June 2015

EAC extraction logfile from 23. May 2016, 22:23

SAXON / Heavy Metal Thunder - CD2 - Live At Bloodstock

Used drive  : HL-DT-STDVDRAM GH22NS70   Adapter: 1  ID: 1

Read mode               : Secure
Utilize accurate stream : Yes
Defeat audio cache      : Yes
Make use of C2 pointers : No

Read offset correction                      : 667
Overread into Lead-In and Lead-Out          : No
Fill up missing offset samples with silence : Yes
Delete leading and trailing silent blocks   : No
Null samples used in CRC calculations       : Yes
Used interface                              : Native Win32 interface for Win NT & 2000

Used output format              : User Defined Encoder
Selected bitrate                : 768 kBit/s
Quality                         : High
Add ID3 tag                     : No
Command line compressor         : C:\Program Files (x86)\Exact Audio Copy\FLAC\FLAC.EXE
Additional command line options : -6 -V %source%

TOC of the extracted CD

     Track |   Start  |  Length  | Start sector | End sector
    ---------------------------------------------------------
        1  |  0:00.00 |  5:48.14 |         0    |    26113
        2  |  5:48.14 |  4:56.59 |     26114    |    48372
        3  | 10:44.73 |  2:57.60 |     48373    |    61707
        4  | 13:42.58 |  4:24.17 |     61708    |    81524
        5  | 18:07.00 |  3:45.11 |     81525    |    98410
        6  | 21:52.11 |  2:47.56 |     98411    |   110991
        7  | 24:39.67 |  3:46.01 |    110992    |   127942
        8  | 28:25.68 |  4:58.23 |    127943    |   150315
        9  | 33:24.16 |  5:35.19 |    150316    |   175459
       10  | 38:59.35 |  5:39.57 |    175460    |   200941
       11  | 44:39.17 |  3:51.13 |    200942    |   218279
       12  | 48:30.30 |  5:55.74 |    218280    |   244978

Range status and errors

Selected range

     Filename E:\Música\EAC\Saxon\SAXON - Heavy Metal Thunder - CD2 - Live At Bloodstock.wav

     Peak level 100.0 %
     Extraction speed 7.5 X
     Range quality 100.0 %
     Test CRC 05A308D2
     Copy CRC 05A308D2
     Copy OK

No errors occurred

AccurateRip summary

Track  1  not present in database
Track  2  not present in database
Track  3  not present in database
Track  4  not present in database
Track  5  not present in database
Track  6  not present in database
Track  7  not present in database
Track  8  not present in database
Track  9  not present in database
Track 10  not present in database
Track 11  not present in database
Track 12  not present in database

None of the tracks are present in the AccurateRip database

End of status report

---- CUETools DB Plugin V2.1.6

[CTDB TOCID: mrxtPyh_m7DU1rgdHpgp.3A8r6M-] found
Submit result: mrxtPyh_m7DU1rgdHpgp.3A8r6M- has been confirmed
Track | CTDB Status
  1   | (10/10) Accurately ripped
  2   | (10/10) Accurately ripped
  3   | (10/10) Accurately ripped
  4   | (10/10) Accurately ripped
  5   | (10/10) Accurately ripped
  6   | (10/10) Accurately ripped
  7   | (10/10) Accurately ripped
  8   | (10/10) Accurately ripped
  9   | (10/10) Accurately ripped
10   | (10/10) Accurately ripped
11   | (10/10) Accurately ripped
12   | (10/10) Accurately ripped

Код:

REM GENRE "Heavy Metal"
REM DATE 2002
REM DISCID B70E8A0D
REM COMMENT "ExactAudioCopy v1.1"
PERFORMER "SAXON"
TITLE "Heavy Metal Thunder"
FILE "CD1 - Heavy Metal Thunder.flac" WAVE
  TRACK 01 AUDIO
    TITLE "Heavy Metal Thunder"
    PERFORMER "SAXON"
    INDEX 01 00:00:00
  TRACK 02 AUDIO
    TITLE "Strong Arm of the Law"
    PERFORMER "SAXON"
    INDEX 00 04:14:22
    INDEX 01 04:16:22
  TRACK 03 AUDIO
    TITLE "Power & the Glory"
    PERFORMER "SAXON"
    INDEX 00 08:41:63
    INDEX 01 08:43:63
  TRACK 04 AUDIO
    TITLE "And the Bands Played On"
    PERFORMER "SAXON"
    INDEX 00 14:43:53
    INDEX 01 14:45:53
  TRACK 05 AUDIO
    TITLE "Crusader"
    PERFORMER "SAXON"
    INDEX 00 17:39:49
    INDEX 01 17:41:49
  TRACK 06 AUDIO
    TITLE "Dallas 1PM"
    PERFORMER "SAXON"
    INDEX 00 24:22:49
    INDEX 01 24:24:49
  TRACK 07 AUDIO
    TITLE "Princess of the Night"
    PERFORMER "SAXON"
    INDEX 00 30:43:35
    INDEX 01 30:45:35
  TRACK 08 AUDIO
    TITLE "Wheels of Steel"
    PERFORMER "SAXON"
    INDEX 00 34:56:68
    INDEX 01 34:58:68
  TRACK 09 AUDIO
    TITLE "747 (Strangers in the Night)"
    PERFORMER "SAXON"
    INDEX 00 40:53:53
    INDEX 01 40:55:53
  TRACK 10 AUDIO
    TITLE "Motorcycle Man"
    PERFORMER "SAXON"
    INDEX 00 45:58:61
    INDEX 01 46:00:61
  TRACK 11 AUDIO
    TITLE "Never Surrender"
    PERFORMER "SAXON"
    INDEX 00 49:48:47
    INDEX 01 49:50:47
  TRACK 12 AUDIO
    TITLE "Denim & Leather"
    PERFORMER "SAXON"
    INDEX 00 53:28:22
    INDEX 01 53:30:22
  TRACK 13 AUDIO
    TITLE "Backs to the Wall"
    PERFORMER "SAXON"
    INDEX 00 58:51:40
    INDEX 01 58:53:40

Код:

REM GENRE "Heavy Metal"
REM DATE 2015
REM DISCID 910CC20C
REM COMMENT "ExactAudioCopy v1.1"
PERFORMER "SAXON"
TITLE "Heavy Metal Thunder - CD2 - Live At Bloodstock"
FILE "SAXON - Heavy Metal Thunder - CD2 - Live At Bloodstock.flac" WAVE
  TRACK 01 AUDIO
    TITLE "Sacrifice"
    PERFORMER "SAXON"
    INDEX 01 00:00:00
  TRACK 02 AUDIO
    TITLE "Power & The Glory"
    PERFORMER "SAXON"
    INDEX 01 05:48:14
  TRACK 03 AUDIO
    TITLE "Heavy Metal Thunder"
    PERFORMER "SAXON"
    INDEX 01 10:44:73
  TRACK 04 AUDIO
    TITLE "Battalions Of Steel"
    PERFORMER "SAXON"
    INDEX 01 13:42:58
  TRACK 05 AUDIO
    TITLE "Motorcycle Man"
    PERFORMER "SAXON"
    INDEX 01 18:07:00
  TRACK 06 AUDIO
    TITLE "And The Bands Played On"
    PERFORMER "SAXON"
    INDEX 01 21:52:11
  TRACK 07 AUDIO
    TITLE "To Hell And Back Again"
    PERFORMER "SAXON"
    INDEX 01 24:39:67
  TRACK 08 AUDIO
    TITLE "747 (Strangers In The Night)"
    PERFORMER "SAXON"
    INDEX 01 28:25:68
  TRACK 09 AUDIO
    TITLE "Crusader"
    PERFORMER "SAXON"
    INDEX 01 33:24:16
  TRACK 10 AUDIO
    TITLE "Wheels Of Steel"
    PERFORMER "SAXON"
    INDEX 01 38:59:35
  TRACK 11 AUDIO
    TITLE "Prince Of The Night"
    PERFORMER "SAXON"
    INDEX 01 44:39:17
  TRACK 12 AUDIO
    TITLE "Denim And Leather"
    PERFORMER "SAXON"
    INDEX 01 48:30:30



pb.wtf



Скачать Saxon - Heavy Metal Thunder через торрент http://i83.fastpic.ru/big/2016/1115/cf/7f6412cb746a432505c1b996b77893cf.png Скачать фильм Saxon - Heavy Metal Thunder через торрент бесплантно в хорошем качестве ... 5.5 10 2
Торрент: Зарегистрирован [2016-11-15 09:13] · скачан: 14 раз
Статус: √ проверено
Размер: 882 MB
Как cкачать? Как скачать Saxon - Heavy Metal Thunder через торрент | qTorrent

28-11-2019 20:33  

Отключить всю рекламу на сайте

    Дорогой пользователь! Огромная просьба, поблагодарите релизера, оцените раздачу и оставьте свои комментарий, если Вы скачали Saxon - Heavy Metal Thunder через торрент бесплатно! Внесите свою лепту в развитие PiratBit!
    Комментировать посты могут только пользователи прошедшие не сложную регистрацию
    Показать сообщения:    

    Saxon - Heavy Metal Thunder через торрент
    Скачать бесплатно Saxon - Heavy Metal Thunder
    Saxon - Heavy Metal Thunder скачать торрент
    Saxon - Heavy Metal Thunder смотреть онлайн
    Cкачать фильм Saxon - Heavy Metal Thunder бесплатно
    Saxon - Heavy Metal Thunder скачать торрент в хорошем качестве
    Saxon - Heavy Metal Thunder смотреть онлайн бесплатно в хорошем качестве


    Вы не можете начинать темы
    Вы не можете отвечать на сообщения
    Вы не можете редактировать свои сообщения
    Вы не можете удалять свои сообщения
    Вы не можете голосовать в опросах
    Вы не можете прикреплять файлы к сообщениям
    Вы можете скачивать файлы