2 сезон

iTunes

1 сезон

1

iTunes

iTunes

iTunes

1 сезон

RePack

30

ИГРА 18+

pack

ВАЖНО

!!Акция!!

Alien_RageХит недели

RePack

MK11
pack

Забери бонус

RePack

jed

!!Акция!!

Alien_Rage

RePack

fifa19

RePack

Assassins Creed: Odyssey

RePack

NEED FOR SPEED™ PAYBACK

4 сезон

9 сезон

Бесстыжие 9 сезон

Все сериалы

все сериалы на PB.wtf

RePack

FAR CRY 5
  

Депутатики / Недотурканые / Недотуркані / Сезон: 1 / Серии 1-24 из 24 (Кирилл Бин) [2016 , Украина, Комедия, WEB-DLRip] pb.wtf

Депутатики через торрент pb.wtf

Размер: 8.15 GB | Добавлен: 3 года 8 мес. назад | Торрент скачан:74 раза
Скачать  

14-11-2016 08:29 Депутатики Скачать торрент  

Депутатики / Недотурканые / Недотуркані


  • Год выпуска: 2016
  • Страна: Украина, Студия квартал 95
  • Жанр: Комедия
  • Продолжительность: ~ 00:24:00 (Серия)
  • Перевод: Не требуется
  • Режиссер: Кирилл Бин
  • В ролях:
    Дмитрий Суржиков, Екатерина Тышкевич, Вячеслав Гиндин, Евгений Капорин, Александр Ярема, Андрей Дебрин, Максим Максимьюк, Константин Корецкий, Андрей Романий, Олег Примогенов, Ирина Мельник


  • Депутатики очередной проект студии Квартал 95 на политическую тему. За последнее время украинские сериалы с подобным сюжетом пользуются большим успехом у телезрителей. Уметь правильно, корректно высмеять многие ошибки политических деятелей дело не простое. Тем не менее никто не сомневается, что сериал Депутатики / Недотурканые, который выйдет на телеэкраны этой осенью будет иметь успех. В сериале много персонажей. Центральной фигурой является депутат Парламента Дмитрий Леонидович Гришко, с виду угрюмый, и где-то не всегда честен по отношению к закону, но наш персонаж на много совестливее, чем некоторые другие "политики" сериала. В Парламент затесались отец с сыном Жуйводу ( забавная фамилия, не правда ли?), для которых политика и есть место где можно осуществить свои амбиции, наглядно продемонстрировать Влacть, подкопить деньжат, что греха таить и быть на высоте. Сын Жуйводу окончил Оксфордский университет, нет не по призванию, а так модно, но теперь претворяет свои радужные мечты в Парламенте страны. Блогер Стримин пытается что-то написать, представитель оппозиции Хренов старается бороться против "бандитов-политиков", мэр Одессы по совместительству шашлычник, а мэр Киева пошел дальше всех - он каратист, без шуток, в прямом смысле слова.

  • Качество: WEB-DLRip
  • Формат: :AVI
  • Видео кодек: XviD
  • Аудио кодек: AC3
  • Видео: 1659 Кбит/сек, 720*400 (16:9), в 25,000 кадров/сек, MPEG-4 Visual (XviD)
  • Аудио: 192 Кбит/сек, 48,0 КГц, 2 канала, AC-3

    Внимание! Раздача ведётся путём добавления новых серий; при каждом добавлении создаётся новый торрент. Чтобы начать докачку новой серии, пользователям необходимо сделать следующее:
    (1) остановить скачивание,
    (2) удалить старый торрент у себя из клиента (старые серии удалять не надо),
    (3) скачать новый торрент и запустить его у себя в клиенте вместо старого, при этом указать клиенту путь в старую папку куда и должно происходить скачивание новых серий.
    Ваш клиент при этом должен произвести хеширование (проверку) старой папки (если не производит сам - помогите ему сделать это), и будет докачивать только те серии которых у вас ещё нет. Старые серии при этом не удаляются, а продолжают раздаваться!
    Eсли вы уже удалили старые серии, то предотвратить повторную закачку старых серий можно, отжав галочку в соответсвующих местах при запуске нового торрента. По возможности, желательно не удалять старые серии как можно дольше чтобы релизёр не столько продолжал раздавать старые серии, а смог сконцентрироваться на новых.

    Общее
    Полное имя : D:\Фильмы\Deputatiki.2016.WEB-DLRip.Files-x\02.Deputatiki.2016.WEB-DLRip.Files-x.avi
    Формат : AVI
    Формат/Информация : Audio Video Interleave
    Размер файла : 347 Мбайт
    Продолжительность : 26 м.
    Общий поток : 1861 Кбит/сек
    Программа кодирования : VirtualDubMod 1.5.10.3 | www.virtualdub-fr.org || (build 2550/release)
    Библиотека кодирования : VirtualDubMod build 2550/release

    Видео
    Идентификатор : 0
    Формат : MPEG-4 Visual
    Профиль формата : Advanced Simple@L5
    Параметр BVOP формата : 1
    Параметр QPel формата : Нет
    Параметр GMC формата : Без точки перехода
    Параметр матрицы формата : Выборочная
    Идентификатор кодека : XVID
    Идентификатор кодека/Подсказка : XviD
    Продолжительность : 26 м.
    Битрейт : 1659 Кбит/сек
    Ширина : 720 пикселей
    Высота : 400 пикселей
    Соотношение сторон : 16:9
    Частота кадров : 25,000 кадров/сек
    Цветовое пространство : YUV
    Субдискретизация насыщенности : 4:2:0
    Битовая глубина : 8 бит
    Тип развёртки : Прогрессивная
    Метод сжатия : С потерями
    Бит/(Пиксели*Кадры) : 0.230
    Размер потока : 310 Мбайт (89%)
    Библиотека кодирования : XviD 73

    Аудио
    Идентификатор : 1
    Формат : AC-3
    Формат/Информация : Audio Coding 3
    Расширение режима : CM (complete main)
    Параметр Endianness формата : Big
    Идентификатор кодека : 2000
    Продолжительность : 26 м.
    Вид битрейта : Постоянный
    Битрейт : 192 Кбит/сек
    Каналы : 2 канала
    Расположение каналов : Front: L R
    Частота : 48,0 КГц
    Частота кадров : 31,250 кадров/сек (1536 spf)
    Метод сжатия : С потерями
    Размер потока : 35,8 Мбайт (10%)
    Выравнивание : Разделение по промежуткам
    Продолжительность промежутка : 40 мс. (1,00 видеокадр)
    Время предзагрузки промежутка : 500 мс.

    Скриншоты:
    скриншот   скриншот   скриншот   скриншот   скриншот   скриншот   скриншот  
    скриншот  

    Раздача ведётся путём добавления новых серий. Добавлена 24 серия (13.02.2017).Просьба перекачать торрент файл.

    pb.wtf



  • Скачать Депутатики через торрент http://pic1.kartinco.top/images/11/7glua.jpg Скачать фильм Депутатики через торрент бесплантно в хорошем качестве qw.png Депутатики очередной проект студии Квартал 95 на политическую тему. За последнее время украинские сериалы с подобным сюжетом ... 5.8 10 31
    Info! Золотая раздача, скачанное не засчитывается.
    Торрент: Зарегистрирован [2017-02-13 03:34] · скачан: 74 раз
    Статус: √ проверено
    Размер: 8.15 GB
    Как cкачать? Как скачать Депутатики через торрент | qTorrent



    Последний раз редактировалось: GEKADOL (2017-02-13 03:38), всего редактировалось 15 раз(а)

    28-11-2019 20:33  

    Отключить всю рекламу на сайте

    08-12-2016 14:22 Депутатики Скачать торрент  

    К сожалению, сериал не цепляет. Здесь больше утрированной сатиры, чем юмора.Ожидал от Квартала большего."Слуга народа" смотрелся интереснее. Тут же просто взяли очевидные факты корупции, слегка преувеличили и выдали за юмор. Больше четырёх серий не осилил. Ни одного разу не улыбнуло. Оценка 3 из 10.pb.wtf



    19-12-2016 03:49 Депутатики Скачать торрент  

    Юный Чикатилла писал(а):

    А вот слово Недотурканные, - это чего значит?

    "Неприкасаемые" pb.wtf



      Дорогой пользователь! Огромная просьба, поблагодарите релизера, оцените раздачу и оставьте свои комментарий, если Вы скачали Депутатики через торрент бесплатно! Внесите свою лепту в развитие PiratBit!
      Комментировать посты могут только пользователи прошедшие не сложную регистрацию
      Показать сообщения:    

      Депутатики через торрент
      Скачать бесплатно Депутатики
      Депутатики скачать торрент
      Депутатики смотреть онлайн
      Cкачать фильм Депутатики бесплатно
      Депутатики скачать торрент в хорошем качестве
      Депутатики смотреть онлайн бесплатно в хорошем качестве


      Вы не можете начинать темы
      Вы не можете отвечать на сообщения
      Вы не можете редактировать свои сообщения
      Вы не можете удалять свои сообщения
      Вы не можете голосовать в опросах
      Вы не можете прикреплять файлы к сообщениям
      Вы можете скачивать файлы