Ссылка на приватное зеркало нашего сайта всего за 1$. Внимание количество ограничено!!!

2 сезон

iTunes

1 сезон

1

2 сезон

2 сезон

iTunes

1 сезон

RePack

30

Новинка

ВАЖНО

ИГРА 18+

pack

RePack

MK11
pack

Забери бонус

RePack

jed

!!Акция!!

Alien_Rage

RePack

fifa19

RePack

Assassins Creed: Odyssey

RePack

NEED FOR SPEED™ PAYBACK

4 сезон

9 сезон

Бесстыжие 9 сезон

Все сериалы

все сериалы на PB.wtf

RePack

FAR CRY 5
  

Деньги / Money (Мартин Росете) [2016 г., триллер, криминал, BDRip 1080p, Любительский (многоголосый) Синема УС] pb.wtf

Деньги через торрент pb.wtf

Размер: 7.12 GB | Добавлен: 4 года назад | Торрент скачан:111 раз
Скачать  

15-11-2016 10:04 Деньги Скачать торрент  

Деньги / MoneyГод выпуска: 2016
Страна: США, Испания
Жанр: триллер, криминал
Продолжительность: 01:24:51
Перевод: Любительский (многоголосый) Синема УС
Субтитры: отсутствуют

Режиссер: Мартин Росете

Премьера в мире: 6 апреля 2016

rating

В ролях: Джесси Уильямс, Келлан Латс, Джейми Бамбер, Джесс Вейкслер, Фредрик Лене, Джо Ланза, Лусия Герерро, Дения Браче, Крис Лэнг, Илья Константин

Описание: Два бизнесмена нечестным путем добыли 5 миллионов долларов и хотят скрыться, но их планам помешал незваный гость.

Доп. информация: Присутствует Реклама!!!

Качество: BDRip 1080p
Формат: MKV
Видео кодек: AVC
Аудио кодек: AC3
Видео: AVC, 1920x856, (2,25:1) 23,976 fps, 11,4 Мбит/сек,8 bit
Аудио#1: AC-3,640 Kbps, 2 ch, 48,0KHz,16 bit
скриншот  скриншот  скриншот  скриншот  скриншот  скриншот  скриншот  

General
Unique ID : 176487594869741206750596013057701564514 (0x84C6463D966B1DACAC629D667283D062)
Complete name : E:\Money.2016.P.BDRip 1080p.mkv
Format : Matroska
Format version : Version 2
File size : 7.12 GiB
Duration : 1h 24mn
Overall bit rate mode : Variable
Overall bit rate : 12.0 Mbps
Encoded date : UTC 2016-11-11 12:04:22
Writing application : mkvmerge v8.3.0 ('Over the Horizon') 64bit
Writing library : libebml v1.3.1 + libmatroska v1.4.2

Video
ID : 1
Format : AVC
Format/Info : Advanced Video Codec
Format profile : High@L4.1
Format settings, CABAC : Yes
Format settings, ReFrames : 5 frames
Codec ID : V_MPEG4/ISO/AVC
Duration : 1h 24mn
Bit rate mode : Variable
Bit rate : 11.1 Mbps
Maximum bit rate : 12.0 Mbps
Width : 1 920 pixels
Height : 856 pixels
Display aspect ratio : 2.25:1
Frame rate mode : Constant
Frame rate : 23.976 (24000/1001) fps
Standard : Component
Color space : YUV
Chroma subsampling : 4:2:0
Bit depth : 8 bits
Scan type : Progressive
Bits/(Pixel*Frame) : 0.282
Stream size : 6.60 GiB (93%)
Default : Yes
Forced : No
Color range : Limited
Color primaries : BT.709
Transfer characteristics : BT.709
Matrix coefficients : BT.709

Audio
ID : 2
Format : AC-3
Format/Info : Audio Coding 3
Mode extension : CM (complete main)
Format settings, Endianness : Big
Codec ID : A_AC3
Duration : 1h 24mn
Bit rate mode : Constant
Bit rate : 640 Kbps
Channel(s) : 2 channels
Channel positions : Front: L R
Sampling rate : 48.0 KHz
Frame rate : 31.250 fps (1536 spf)
Compression mode : Lossy
Stream size : 388 MiB (5%)
Default : Yes
Forced : No


pb.wtf



Скачать Деньги через торрент http://s019.radikal.ru/i633/1611/c8/23528c059bd3.png Скачать фильм Деньги через торрент бесплантно в хорошем качестве Описание: Два бизнесмена нечестным путем добыли 5 миллионов долларов и хотят скрыться, но их планам помешал незваный гость.Доп. информация: ... 9.8 10 5
Info! Золотая раздача, скачанное не засчитывается.
Торрент: Зарегистрирован [2016-11-15 10:04] · скачан: 111 раз
Статус: # сомнительно
Размер: 7.12 GB
Как cкачать? Как скачать Деньги через торрент | qTorrent

% Раздел Тема Автор DL S | L
T Релизы по Парсеру [Игры, Сериалы и Фильмы и другое...] [ 1.36 GB ] Кровавые Деньги / Blood Money [2017 WEB-DLRip] / Любительский многоголосый ["Синема УС"] Sherif Скачать
1 | 0
T Фильмы 2016 [DVDrip, WEB-DLRip, HDrip] (DUB, MVO) [ 1.37 GB ] Деньги / Money [2016 HDRip] MVO [Синема УС] bober100 Скачать
1 | 0

28-11-2019 20:33  

Отключить всю рекламу на сайте

14-12-2017 17:42 Деньги Скачать торрент  

    Дорогой пользователь! Огромная просьба, поблагодарите релизера, оцените раздачу и оставьте свои комментарий, если Вы скачали Деньги через торрент бесплатно! Внесите свою лепту в развитие PiratBit!
    Комментировать посты могут только пользователи прошедшие не сложную регистрацию
    Показать сообщения:    

    Деньги через торрент
    Скачать бесплатно Деньги
    Деньги скачать торрент
    Деньги смотреть онлайн
    Cкачать фильм Деньги бесплатно
    Деньги скачать торрент в хорошем качестве
    Деньги смотреть онлайн бесплатно в хорошем качестве


    Вы не можете начинать темы
    Вы не можете отвечать на сообщения
    Вы не можете редактировать свои сообщения
    Вы не можете удалять свои сообщения
    Вы не можете голосовать в опросах
    Вы не можете прикреплять файлы к сообщениям
    Вы можете скачивать файлы