Ссылка на приватное зеркало всего за 1$. Внимание количество ограничено!!!

iTunes

iTunes

iTunes

1

iTunes

iTunes

iTunes

iTunes

iTunes

30
pack

$ от Little Big

ВАЖНО

!!Акция!!

Alien_RageХит недели

RePack

Resident Evil 21

ИГРА 18+

pack

RePack

jed

!!Акция!!

Alien_Rage

RePack

fifa19

RePack

Assassins Creed: Odyssey

RePack

NEED FOR SPEED™ PAYBACK

4 сезон

9 сезон

Бесстыжие 9 сезон

Все сериалы

все сериалы на PB.wtf

RePack

FAR CRY 5
  

Отряд самоубийц / Suicide Squad (Дэвид Эйр) [2016, фантастика, фэнтези, боевик, WEB-DL 720p] [Theatrical Cut] Дубляж - [Лицензия / iTunes] pb.wtf

Отряд самоубийц через торрент pb.wtf

Размер: 4.33 GB | Добавлен: 3 года 7 мес. назад | Торрент скачан:611 раз
Скачать  

15-11-2016 20:10 Отряд самоубийц Скачать торрент  

Отряд самоубийц / Suicide Squad
Театральная версия / Theatrical Cut

Год выпуска: 2016
Страна: США
Жанр: фантастика, фэнтези, боевик, приключения

Продолжительность: 02:02:50
Перевод: Дубляж - [Лицензия / iTunes]
Субтитры: русские (Forced, iTunes), русские (iTunes)
Режиссер: Дэвид Эйр
В ролях:

Марго Робби (Harley Quinn), Уилл Смит (Deadshot), Джаред Лето (The Joker), Джай Кортни (George Harkness / Captain Boomerang), Кара Делевинь (June Moone / Enchantress), Джей Эрнандес (Diablo), Юэль Киннаман (Rick Flag), Виола Дэвис (Amanda Waller), Адевале Акинойе-Агбаже (Killer Croc), Скотт Иствуд (Lieutenant GQ Edwards), Джейм Фицсаймонс (Sergeant Ames Bravo 14), Айк Баринхолц (Griggs)
Описание:
Правительство решает дать команде суперзлодеев шанс на искупление. Подвох в том, что их отправляют на миссию, где они, вероятнее всего, погибнут.
Рейтинг:

MPAA: PG-13 - Детям до 13 лет просмотр не желателен
Качество: WEB-DL 720p
Формат: MKV
Видео: AVC, 1280x532 (2.40:1), 23,976 fps
Аудио №1: русский / AC3 / 5.1 / 48 kHz / 384 kbps / |Дубляж, iTunes|
Аудио №2: польский / AAC LC / 2.0 / 44,1 kHz / 128.00 kbps|Дубляж, iTunes|
Аудио №3: английский / AC3 / 5.1 / 48 kHz / 384 kbps / |Оригинал|
Аудио №4: английский / AAC LC / 2.0 / 44,1 kHz / 128.00 kbps |Descriptive|
Навигация по главам: есть
Релиз от:
General
Unique ID : 247819828428300255219036034969214978766 (0xBA705CE2F87BA071AD4D30C793790ACE)
Complete name : E:\Suicide.Squad.TC.2016.720p.WEB-DL.Rus.Ukr.2xEng.HDCLUB.mkv
Format : Matroska
Format version : Version 2
File size : 4.33 GiB
Duration : 2 h 2 min
Overall bit rate : 5 044 kb/s
Movie name : Suicide Squad (2016) [Theatrical Cut] - Release for HDCLUB
Encoded date : UTC 2016-11-15 19:21:39
Writing application : mkvmerge v3.4.0 ('Rapunzel') built on May 15 2010 09:38:20
Writing library : libebml v0.8.0 + libmatroska v0.9.0

Video
ID : 1
Format : AVC
Format/Info : Advanced Video Codec
Format profile : Main@L3.1
Format settings, CABAC : No
Format settings, ReFrames : 2 frames
Codec ID : V_MPEG4/ISO/AVC
Duration : 2 h 2 min
Width : 1 280 pixels
Height : 532 pixels
Display aspect ratio : 2.40:1
Frame rate mode : Constant
Frame rate : 23.976 FPS
Color space : YUV
Chroma subsampling : 4:2:0
Bit depth : 8 bits
Scan type : Progressive
Title : Suicide Squad (2016) [Theatrical Cut] - Release for HDCLUB
Language : English
Default : Yes
Forced : No
Color range : Limited
Color primaries : BT.709
Transfer characteristics : BT.709
Matrix coefficients : BT.709

Audio #1
ID : 2
Format : AC-3
Format/Info : Audio Coding 3
Mode extension : CM (complete main)
Format settings, Endianness : Big
Codec ID : A_AC3
Duration : 2 h 2 min
Bit rate mode : Constant
Bit rate : 384 kb/s
Channel(s) : 6 channels
Channel positions : Front: L C R, Side: L R, LFE
Sampling rate : 48.0 kHz
Frame rate : 31.250 FPS (1536 spf)
Compression mode : Lossy
Stream size : 337 MiB (8%)
Title : AC3 5.1 @ 384 kbps - DUB, iTunes
Language : Russian
Default : Yes
Forced : No

Audio #2
ID : 3
Format : AAC
Format/Info : Advanced Audio Codec
Format profile : LC
Codec ID : A_AAC
Duration : 2 h 2 min
Channel(s) : 2 channels
Channel positions : Front: L R
Sampling rate : 44.1 kHz
Frame rate : 43.066 FPS (1024 spf)
Compression mode : Lossy
Title : AAC 2.0 @ 128 kbps - DUB, iTunes
Language : Ukrainian
Default : No
Forced : No

Audio #3
ID : 4
Format : AC-3
Format/Info : Audio Coding 3
Mode extension : CM (complete main)
Format settings, Endianness : Big
Codec ID : A_AC3
Duration : 2 h 2 min
Bit rate mode : Constant
Bit rate : 384 kb/s
Channel(s) : 6 channels
Channel positions : Front: L C R, Side: L R, LFE
Sampling rate : 48.0 kHz
Frame rate : 31.250 FPS (1536 spf)
Compression mode : Lossy
Stream size : 337 MiB (8%)
Title : AC3 5.1 @ 384 kbps
Language : English
Default : No
Forced : No

Audio #4
ID : 5
Format : AAC
Format/Info : Advanced Audio Codec
Format profile : LC
Codec ID : A_AAC
Duration : 2 h 2 min
Channel(s) : 2 channels
Channel positions : Front: L R
Sampling rate : 44.1 kHz
Frame rate : 43.066 FPS (1024 spf)
Compression mode : Lossy
Title : AAC 2.0 @ 128 kbps - Descriptive
Language : English
Default : No
Forced : No

Text #1
ID : 6
Format : UTF-8
Codec ID : S_TEXT/UTF8
Codec ID/Info : UTF-8 Plain Text
Title : Forced, iTunes
Language : Russian
Default : Yes
Forced : No

Text #2
ID : 7
Format : UTF-8
Codec ID : S_TEXT/UTF8
Codec ID/Info : UTF-8 Plain Text
Title : iTunes
Language : Russian
Default : No
Forced : No

Menu
00:00:00.000 : en:1
00:09:07.000 : en:2
00:19:03.000 : en:3
00:29:27.000 : en:4
00:39:17.000 : en:5
00:50:21.000 : en:6
01:00:10.000 : en:7
01:11:46.000 : en:8
01:22:46.000 : en:9
01:32:01.000 : en:10
01:39:21.000 : en:11
01:52:27.000 : en:12
pb.wtf



Скачать Отряд самоубийц через торрент http://i3.imageban.ru/out/2016/11/15/fa5301d6ae93a348021287d78581fe2f.jpg Скачать фильм Отряд самоубийц через торрент бесплантно в хорошем качестве Описание: Правительство решает дать команде суперзлодеев шанс на искупление. Подвох в том, что их отправляют на миссию, где они, вероятнее ... 9.4 10 15
Info! Золотая раздача, скачанное не засчитывается.
Торрент: Зарегистрирован [2016-11-15 20:10] · скачан: 611 раз
Статус: √ проверено
Размер: 4.33 GB
Как cкачать? Как скачать Отряд самоубийц через торрент | qTorrent

% Раздел Тема Автор DL S | L
Ultra HD (UHD: 2K, 4K, 8K) — видео сверхвысокой чёткости [ 28.35 GB ] Отряд самоубийц / Suicide Squad [2016 UHD BDRip 2160p SDR] DUB sheker187 Скачать
1 | 0
Ultra HD (UHD: 2K, 4K, 8K) — видео сверхвысокой чёткости [ 58.32 GB ] Отряд самоубийц / Suicide Squad [2016 UHD Blu-Ray EUR 2160p] - [] sheker187 Скачать
1 | 0
Ultra HD (UHD: 2K, 4K, 8K) — видео сверхвысокой чёткости [ 52.07 GB ] Отряд самоубийц / Suicide Squad [2016 UHD BDRemux 2160p] DUB + AVO [А.Матвеев] sheker187 Скачать
1 | 0
Ultra HD (UHD: 2K, 4K, 8K) — видео сверхвысокой чёткости [ 48.19 GB ] Отряд самоубийц / Suicide Squad [2016 UHD BDRemux 2160p] DUB+AVO [] bober100 Скачать
1 | 0
Фильмы (Blu-ray, BD-Remux, HDDVD) [ 25.5 GB ] Отряд самоубийц / Suicide Squad [2016 BD Remux 1080p] [ Blu-Ray CEE] DUB+AVO bober100 Скачать
1 | 0
Фильмы (HD 720p, 1080p) (48-60 fps) [ 4.36 GB ] Отряд самоубийц / Suicide Squad [2016 BDRip 720p 60 fps от еnvy / NNNB] [Theatrical Cut] DUB еnvy Скачать
24 | 0
Ultra HD (UHD: 2K, 4K, 8K) — видео сверхвысокой чёткости [ 57.75 GB ] Отряд самоубийц / Suicide Squad [Расширенная версия/Extended Cut] [2016 UHD WEBRip 2160p] [USA Transfer] DUB [] bober100 Скачать
1 | 0

28-11-2019 20:33  

Отключить всю рекламу на сайте

15-11-2016 21:55 Отряд самоубийц Скачать торрент  

Спасибо большое, мил человек.pb.wtf



18-11-2016 10:55 Отряд самоубийц Скачать торрент  

это расширенная версия???pb.wtf



18-11-2016 11:26 Отряд самоубийц Скачать торрент  

sfdoom, нет. Это театральная версия.
Расширенная здесь: Отряд самоубийц / Suicide Squad pb.wtf



19-11-2016 09:15 Отряд самоубийц Скачать торрент  

-Lexx-, cпасибо большое!!!pb.wtf



    Дорогой пользователь! Огромная просьба, поблагодарите релизера, оцените раздачу и оставьте свои комментарий, если Вы скачали Отряд самоубийц через торрент бесплатно! Внесите свою лепту в развитие PiratBit!
    Комментировать посты могут только пользователи прошедшие не сложную регистрацию
    Показать сообщения:    

    Отряд самоубийц через торрент
    Скачать бесплатно Отряд самоубийц
    Отряд самоубийц скачать торрент
    Отряд самоубийц смотреть онлайн
    Cкачать фильм Отряд самоубийц бесплатно
    Отряд самоубийц скачать торрент в хорошем качестве
    Отряд самоубийц смотреть онлайн бесплатно в хорошем качестве


    Вы не можете начинать темы
    Вы не можете отвечать на сообщения
    Вы не можете редактировать свои сообщения
    Вы не можете удалять свои сообщения
    Вы не можете голосовать в опросах
    Вы не можете прикреплять файлы к сообщениям
    Вы можете скачивать файлы