Ссылка на приватное зеркало всего за 1$. Внимание количество ограничено!!!

iTunes

iTunes

iTunes

1

iTunes

iTunes

iTunes

iTunes

iTunes

30
pack

$ от Little Big

ВАЖНО

!!Акция!!

Alien_RageХит недели

RePack

Resident Evil 21

ИГРА 18+

pack

RePack

jed

!!Акция!!

Alien_Rage

RePack

fifa19

RePack

Assassins Creed: Odyssey

RePack

NEED FOR SPEED™ PAYBACK

4 сезон

9 сезон

Бесстыжие 9 сезон

Все сериалы

все сериалы на PB.wtf

RePack

FAR CRY 5
  

Отряд самоубийц / Suicide Squad (Дэвид Эйр) [2016, фантастика, фэнтези, боевик, WEB-DL 1080p] [Theatrical Cut] Дубляж - [Лицензия / iTunes] pb.wtf

Отряд самоубийц через торрент pb.wtf

Размер: 4.68 GB | Добавлен: 3 года 7 мес. назад | Торрент скачан:3994 раза
Скачать  

15-11-2016 20:22 Отряд самоубийц Скачать торрент  

Отряд самоубийц / Suicide Squad
Театральная версия / Theatrical Cut

Год выпуска: 2016
Страна: США
Жанр: фантастика, фэнтези, боевик, приключения

Продолжительность: 02:02:50
Перевод: Дубляж - [Лицензия / iTunes]
Режиссер: Дэвид Эйр
В ролях:

Марго Робби (Harley Quinn), Уилл Смит (Deadshot), Джаред Лето (The Joker), Джай Кортни (George Harkness / Captain Boomerang), Кара Делевинь (June Moone / Enchantress), Джей Эрнандес (Diablo), Юэль Киннаман (Rick Flag), Виола Дэвис (Amanda Waller), Адевале Акинойе-Агбаже (Killer Croc), Скотт Иствуд (Lieutenant GQ Edwards), Джейм Фицсаймонс (Sergeant Ames Bravo 14), Айк Баринхолц (Griggs)
Описание:
Правительство решает дать команде суперзлодеев шанс на искупление. Подвох в том, что их отправляют на миссию, где они, вероятнее всего, погибнут.
Рейтинг:

MPAA: PG-13 - Детям до 13 лет просмотр не желателен
Качество: WEB-DL 1080p
Формат: MKV
Видео: AVC, 1916x798 (2.40:1), 4689 kbps, 23,976 fps, 0,128 bpp
Аудио №1: русский / AC3 / 5.1 / 48 kHz / 384 kbps / |iTunes|
Аудио №2: английский / AC3 / 5.1 / 48 kHz / 384 kbps /
Навигация по главам: есть
General
Unique ID : 247664391938465154098060237298707986848 (0xBA526D46A640BC3E90D89142493FF9A0)
Complete name : E:\SamoUbiysTvenniy.OtRyad.2O16.D.WEB-DL.1O8Op.mkv
Format : Matroska
Format version : Version 2
File size : 4.68 GiB
Duration : 2 h 2 min
Overall bit rate : 5 459 kb/s
Movie name : EVO
Encoded date : UTC 2016-11-15 19:11:18
Writing application : mkvmerge v8.3.0 ('Over the Horizon') 64bit
Writing library : libebml v1.3.1 + libmatroska v1.4.2

Video
ID : 1
Format : AVC
Format/Info : Advanced Video Codec
Format profile : High@L4
Format settings, CABAC : Yes
Format settings, ReFrames : 5 frames
Codec ID : V_MPEG4/ISO/AVC
Duration : 2 h 2 min
Bit rate : 4 689 kb/s
Width : 1 916 pixels
Height : 798 pixels
Display aspect ratio : 2.40:1
Frame rate mode : Constant
Frame rate : 23.976 FPS
Color space : YUV
Chroma subsampling : 4:2:0
Bit depth : 8 bits
Scan type : Progressive
Bits/(Pixel*Frame) : 0.128
Stream size : 4.02 GiB (86%)
Language : English
Default : Yes
Forced : No
Color range : Limited
Color primaries : BT.709
Transfer characteristics : BT.709
Matrix coefficients : BT.709

Audio #1
ID : 2
Format : AC-3
Format/Info : Audio Coding 3
Mode extension : CM (complete main)
Format settings, Endianness : Big
Codec ID : A_AC3
Duration : 2 h 2 min
Bit rate mode : Constant
Bit rate : 384 kb/s
Channel(s) : 6 channels
Channel positions : Front: L C R, Side: L R, LFE
Sampling rate : 48.0 kHz
Frame rate : 31.250 FPS (1536 spf)
Compression mode : Lossy
Stream size : 337 MiB (7%)
Language : Russian
Default : Yes
Forced : No

Audio #2
ID : 3
Format : AC-3
Format/Info : Audio Coding 3
Mode extension : CM (complete main)
Format settings, Endianness : Big
Codec ID : A_AC3
Duration : 2 h 2 min
Bit rate mode : Constant
Bit rate : 384 kb/s
Channel(s) : 6 channels
Channel positions : Front: L C R, Side: L R, LFE
Sampling rate : 48.0 kHz
Frame rate : 31.250 FPS (1536 spf)
Compression mode : Lossy
Stream size : 337 MiB (7%)
Language : English
Default : No
Forced : No

Menu
00:00:00.000 : en:1
00:09:07.000 : en:2
00:19:03.000 : en:3
00:29:27.000 : en:4
00:39:17.000 : en:5
00:50:21.000 : en:6
01:00:10.000 : en:7
01:11:46.000 : en:8
01:22:46.000 : en:9
01:32:01.000 : en:10
01:39:21.000 : en:11
01:52:27.000 : en:12
pb.wtf



Скачать Отряд самоубийц через торрент http://i3.imageban.ru/out/2016/11/15/0415c8646b69dbf144ead634b2092fc4.jpg Скачать фильм Отряд самоубийц через торрент бесплантно в хорошем качестве Описание: Правительство решает дать команде суперзлодеев шанс на искупление. Подвох в том, что их отправляют на миссию, где они, вероятнее ... 9.8 10 76
Info! Золотая раздача, скачанное не засчитывается.
Торрент: Зарегистрирован [2016-11-15 20:22] · скачан: 3 994 раз
Статус: √ проверено
Размер: 4.68 GB
Как cкачать? Как скачать Отряд самоубийц через торрент | qTorrent

% Раздел Тема Автор DL S | L
Ultra HD (UHD: 2K, 4K, 8K) — видео сверхвысокой чёткости [ 28.35 GB ] Отряд самоубийц / Suicide Squad [2016 UHD BDRip 2160p SDR] DUB sheker187 Скачать
2 | 0
Ultra HD (UHD: 2K, 4K, 8K) — видео сверхвысокой чёткости [ 58.32 GB ] Отряд самоубийц / Suicide Squad [2016 UHD Blu-Ray EUR 2160p] - [] sheker187 Скачать
1 | 0
Ultra HD (UHD: 2K, 4K, 8K) — видео сверхвысокой чёткости [ 52.07 GB ] Отряд самоубийц / Suicide Squad [2016 UHD BDRemux 2160p] DUB + AVO [А.Матвеев] sheker187 Скачать
1 | 0
Ultra HD (UHD: 2K, 4K, 8K) — видео сверхвысокой чёткости [ 48.19 GB ] Отряд самоубийц / Suicide Squad [2016 UHD BDRemux 2160p] DUB+AVO [] bober100 Скачать
1 | 0
Фильмы (Blu-ray, BD-Remux, HDDVD) [ 25.5 GB ] Отряд самоубийц / Suicide Squad [2016 BD Remux 1080p] [ Blu-Ray CEE] DUB+AVO bober100 Скачать
1 | 0
Фильмы (HD 720p, 1080p) (48-60 fps) [ 4.36 GB ] Отряд самоубийц / Suicide Squad [2016 BDRip 720p 60 fps от еnvy / NNNB] [Theatrical Cut] DUB еnvy Скачать
9 | 0
Ultra HD (UHD: 2K, 4K, 8K) — видео сверхвысокой чёткости [ 57.75 GB ] Отряд самоубийц / Suicide Squad [Расширенная версия/Extended Cut] [2016 UHD WEBRip 2160p] [USA Transfer] DUB [] bober100 Скачать
1 | 0

28-11-2019 20:33  

Отключить всю рекламу на сайте

16-11-2016 11:08 Отряд самоубийц Скачать торрент  

Красиво, спасибо. Таки дождался)pb.wtf



17-11-2016 16:22 Отряд самоубийц Скачать торрент  

Когда уже будет BD 1080p?pb.wtf



18-11-2016 05:10 Отряд самоубийц Скачать торрент  

Фильм не понравился, бред сумасшедшего 3/10pb.wtf



18-11-2016 09:09 Отряд самоубийц Скачать торрент  

На разок сойдёт,не больше!pb.wtf



18-11-2016 11:47 Отряд самоубийц Скачать торрент  

Дождался хорошего качества!
Большое спасибо)pb.wtf



19-11-2016 13:42 Отряд самоубийц Скачать торрент  

вполне годный фильмpb.wtf



19-11-2016 15:27 Отряд самоубийц Скачать торрент  

Ну и ротище у Марго Роббиpb.wtf



21-11-2016 14:13 Отряд самоубийц Скачать торрент  

честно мне не понравилось, такая ерунда ппц, ожидал большего, а тут сами сделали проблему и другой проблемой решили свою решить очень глупо выглядит.pb.wtf



22-11-2016 07:50 Отряд самоубийц Скачать торрент  

апофеоз дерьмофильмов !
Уилл Смит скатился в полное дно коли в таком дерьме снялся.
если бы не сиськи с задом Робби смотреть не на что !pb.wtf



25-11-2016 19:37 Отряд самоубийц Скачать торрент  

мда, половину посмотрел, выключил, пошел спать..
в пень.pb.wtf



    Дорогой пользователь! Огромная просьба, поблагодарите релизера, оцените раздачу и оставьте свои комментарий, если Вы скачали Отряд самоубийц через торрент бесплатно! Внесите свою лепту в развитие PiratBit!
    Комментировать посты могут только пользователи прошедшие не сложную регистрацию
    Показать сообщения:    

    Отряд самоубийц через торрент
    Скачать бесплатно Отряд самоубийц
    Отряд самоубийц скачать торрент
    Отряд самоубийц смотреть онлайн
    Cкачать фильм Отряд самоубийц бесплатно
    Отряд самоубийц скачать торрент в хорошем качестве
    Отряд самоубийц смотреть онлайн бесплатно в хорошем качестве


    Вы не можете начинать темы
    Вы не можете отвечать на сообщения
    Вы не можете редактировать свои сообщения
    Вы не можете удалять свои сообщения
    Вы не можете голосовать в опросах
    Вы не можете прикреплять файлы к сообщениям
    Вы можете скачивать файлы