Ссылка на приватное зеркало нашего сайта всего за 1$. Внимание количество ограничено!!!

2 сезон

iTunes

1 сезон

1

iTunes

iTunes

iTunes

1 сезон

RePack

30

ИГРА 18+

pack

ВАЖНО

!!Акция!!

Alien_RageХит недели

RePack

MK11
pack

Забери бонус

RePack

jed

!!Акция!!

Alien_Rage

RePack

fifa19

RePack

Assassins Creed: Odyssey

RePack

NEED FOR SPEED™ PAYBACK

4 сезон

9 сезон

Бесстыжие 9 сезон

Все сериалы

все сериалы на PB.wtf

RePack

FAR CRY 5
  

Жемчужная свадьба / 4 серии из 4 (Олег Штром) [2016 г., мелодрама, WEB-DLRip] pb.wtf

Жемчужная свадьба через торрент pb.wtf

Размер: 2.13 GB | Добавлен: 3 года 11 мес. назад | Торрент скачан:46 раз
Скачать  

16-11-2016 11:18 Жемчужная свадьба Скачать торрент  

Жемчужная свадьба
Год выпуска: 2016
Страна: Россия
Жанр: мелодрама
Продолжительность: 4 х ~ 00:44:00
Перевод: Не требуется
Субтитры: отсутствуют

Режиссер: Олег Штром



В ролях:

Инга Оболдина, Сергей Барышев, Марина Есипенко, Евгения Розанова, Мария Пирогова, Анна Мареева, Александр Пашков, Кирилл Иванченко, Павел Савинков, Андрей Павловец и др.

Описание:

30-летие свадьбы – праздник для супругов Чайкиных долгожданный и желанный. Торжество Светлана и Юрий готовятся отмечать с размахом. Но тут на горизонте появляется новая учительница дочки Полины, она же – первая возлюбленная Юрия. Жемчужная свадьба оказывается под угрозой..

Качество: WEB-DLRip
Формат: AVI
Видео кодек: XviD
Аудио кодек: AC3

Видео: 720x400 (1.80:1), 25 fps, XviD build 73 ~ 1550 kbps avg, 0.235 bit/pixel
Аудио#1: 48 kHz, AC3 Dolby Digital, 2/0 (L,R) ch, ~192 kbps
Общее
Полное имя : D:\Zemchuznaja.svadba.2016.WEB-DLRip.Files-x\01.Zemchuznaja.svadba.2016.WEB-DLRip.Files-x.avi
Формат : AVI
Формат/Информация : Audio Video Interleave
Размер файла : 546 Мбайт
Продолжительность : 44 м. 8 с.
Общий поток : 1730 Кбит/сек
Программа кодирования : VirtualDubMod 1.5.10.3 | www.virtualdub-fr.org || (build 2550/release)
Библиотека кодирования : VirtualDubMod build 2550/release

Видео
Идентификатор : 0
Формат : MPEG-4 Visual
Профиль формата : Advanced Simple@L5
Параметр BVOP формата : 1
Параметр QPel формата : Нет
Параметр GMC формата : Без точки перехода
Параметр матрицы формата : Выборочная
Идентификатор кодека : XVID
Идентификатор кодека/Подсказка : XviD
Продолжительность : 44 м. 8 с.
Битрейт : 1528 Кбит/сек
Ширина : 720 пикселей
Высота : 400 пикселей
Соотношение сторон : 16:9
Частота кадров : 25,000 кадров/сек
Цветовое пространство : YUV
Субдискретизация насыщенности : 4:2:0
Битовая глубина : 8 бит
Тип развёртки : Прогрессивная
Метод сжатия : С потерями
Бит/(Пиксели*Кадры) : 0.212
Размер потока : 482 Мбайт (88%)
Библиотека кодирования : XviD 73

Аудио
Идентификатор : 1
Формат : AC-3
Формат/Информация : Audio Coding 3
Расширение режима : CM (complete main)
Параметр Endianness формата : Big
Идентификатор кодека : 2000
Продолжительность : 44 м. 8 с.
Вид битрейта : Постоянный
Битрейт : 192 Кбит/сек
Каналы : 2 канала
Расположение каналов : Front: L R
Частота : 48,0 КГц
Частота кадров : 31,250 кадров/сек (1536 spf)
Метод сжатия : С потерями
Размер потока : 60,6 Мбайт (11%)
Выравнивание : Разделение по промежуткам
Продолжительность промежутка : 40 мс. (1,00 видеокадр)
Время предзагрузки промежутка : 500 мс.
скриншот  скриншот  скриншот  скриншот  
pb.wtf



Скачать Жемчужная свадьба через торрент http://s019.radikal.ru/i611/1611/b3/38fdbac005be.jpg Скачать фильм Жемчужная свадьба через торрент бесплантно в хорошем качестве Описание: 30-летие свадьбы – праздник для супругов Чайкиных долгожданный и желанный. Торжество Светлана и Юрий готовятся отмечать с ... 9.8 10 6
Торрент: Зарегистрирован [2016-11-16 11:18] · скачан: 46 раз
Статус: √ проверено
Размер: 2.13 GB
Как cкачать? Как скачать Жемчужная свадьба через торрент | qTorrent

28-11-2019 20:33  

Отключить всю рекламу на сайте

    Дорогой пользователь! Огромная просьба, поблагодарите релизера, оцените раздачу и оставьте свои комментарий, если Вы скачали Жемчужная свадьба через торрент бесплатно! Внесите свою лепту в развитие PiratBit!
    Комментировать посты могут только пользователи прошедшие не сложную регистрацию
    Показать сообщения:    

    Жемчужная свадьба через торрент
    Скачать бесплатно Жемчужная свадьба
    Жемчужная свадьба скачать торрент
    Жемчужная свадьба смотреть онлайн
    Cкачать фильм Жемчужная свадьба бесплатно
    Жемчужная свадьба скачать торрент в хорошем качестве
    Жемчужная свадьба смотреть онлайн бесплатно в хорошем качестве


    Вы не можете начинать темы
    Вы не можете отвечать на сообщения
    Вы не можете редактировать свои сообщения
    Вы не можете удалять свои сообщения
    Вы не можете голосовать в опросах
    Вы не можете прикреплять файлы к сообщениям
    Вы можете скачивать файлы