новый адрес
Ссылка на приватное зеркало всего за 1$. Внимание количество ограничено!!!

iTunes

1+1

iTunes

мы

WEB-DL

1

iTunes

Чернобыль

iTunes

Ральф против интернета

Лицензия

ПШазам

Лицензия

Оно 2

Лицензия

30
pack

Вам бонус

ВАЖНО

!!Акция!!

Alien_RageХит недели

RePack

Resident Evil 21

ИГРА 18+

pack

RePack

jed

!!Акция!!

Alien_Rage

RePack

fifa19

RePack

Assassins Creed: Odyssey

RePack

NEED FOR SPEED™ PAYBACK

3 сезон

9 сезон

Бесстыжие 9 сезон

Все сериалы

все сериалы на PB.wtf

RePack

FAR CRY 5
Ребята, катастрофически не хватает 1900р. для оплаты серверов за Октябрь (всвязи с блокировками трафик упал в 3 раза), 1-2р., выручайте.
  

Драгоценный подарок (Александр Роу) [1956, СССР, семейный, комедия, DVDRip от AVP Studio] pb.wtf

Драгоценный подарок через торрент pb.wtf

Размер: 1.09 GB | Добавлен: 3 года назад | Торрент скачан:12 раз
Скачать  

17-11-2016 08:28 Драгоценный подарок Скачать торрент  

Драгоценный подарок
Страна: СССР
Производство: Киностудия им. Горького

Жанр: семейный, комедия
Год выпуска: 1956
Продолжительность: 01:13:19

Перевод: Не требуется
Cубтитры: нет
Оригинальная аудиодорожка: русский

Режиссер: Александр Роу

В ролях:
Владимир Володин, Галина Степанова, Мария Миронова, Вера Орлова, Рина Зелёная, Лилия Лазукова, Александр Лебедев, Лев Фричинский, Михаил Кузнецов, Георгий Милляр, Александр Тимонтаев...
Полный список актёров

Описание:
Накануне своего рождения москвич Карп Трофимович отправился на рыбалку. Бортмеханик Саша Ватрушкин, молодой человек дочери Карпа Трофимовича, привёз живую щуку с Амура к дню рождения с намерением её зажарить для именинника. В Москве, домочадцам приходит в голову нацепить эту щуку рыбаку на крючок...
Один из вариантов был стереофильм.

Источник: DVD5 R5
Качество видео: DVDRip
Формат видео: AVI

Видео: 704x528 (4:3), 25 fps, XviD ~ 1925 kbps avg, 0.207 bit/pixel
Аудио: 48 kHz, Dolby Digital AC3 2.0, 192 kbps

Раздача от:
Общее
Полное имя : Dragocennyi.podarok.1956.DVDRip_[New-team]_by_AVP_Studio.avi
Формат : AVI
Формат/Информация : Audio Video Interleave
Размер файла : 1,09 Гбайт
Продолжительность : 1 ч. 13 м.
Общий поток : 2127 Кбит/сек
Программа кодирования : VirtualDubMod 1.5.10.3 | www.virtualdub-fr.org || (build 2550/release)
Библиотека кодирования : VirtualDubMod build 2550/release

Видео
Идентификатор : 0
Формат : MPEG-4 Visual
Профиль формата : Advanced Simple@L5
Параметр BVOP формата : 1
Параметр QPel формата : Нет
Параметр GMC формата : Без точки перехода
Параметр матрицы формата : Выборочная
Идентификатор кодека : XVID
Идентификатор кодека/Подсказка : XviD
Продолжительность : 1 ч. 13 м.
Битрейт : 1925 Кбит/сек
Ширина : 704 пикселя
Высота : 528 пикселей
Соотношение сторон : 4:3
Частота кадров : 25,000 кадров/сек
Цветовое пространство : YUV
Субдискретизация насыщенности : 4:2:0
Битовая глубина : 8 бит
Тип развёртки : Прогрессивная
Метод сжатия : С потерями
Бит/(Пиксели*Кадры) : 0.207
Размер потока : 1009 Мбайт (91%)
Библиотека кодирования : XviD 1.2.1 (UTC 2008-12-04)

Аудио
Идентификатор : 1
Формат : AC-3
Формат/Информация : Audio Coding 3
Расширение режима : CM (complete main)
Параметр Endianness формата : Big
Идентификатор кодека : 2000
Продолжительность : 1 ч. 13 м.
Вид битрейта : Постоянный
Битрейт : 192 Кбит/сек
Каналы : 2 канала
Расположение каналов : Front: L R
Частота : 48,0 КГц
Частота кадров : 31,250 кадров/сек (1536 spf)
Битовая глубина : 16 бит
Метод сжатия : С потерями
Размер потока : 101 Мбайт (9%)
Выравнивание : Разделение по промежуткам
Продолжительность промежутка : 40 мс. (1,00 видеокадр)
Время предзагрузки промежутка : 500 мс
pb.wtf



Скачать Драгоценный подарок через торрент http://s020.radikal.ru/i715/1611/16/b83bb2daccf1.png Скачать фильм Драгоценный подарок через торрент бесплантно в хорошем качестве Описание:Накануне своего рождения москвич Карп Трофимович отправился на рыбалку. Бортмеханик Саша Ватрушкин, молодой человек дочери Карпа ... 10 10 1
Info! Золотая раздача, скачанное не засчитывается.
Торрент: Зарегистрирован [2016-11-17 08:28] · скачан: 12 раз
Статус: √ проверено
Размер: 1.09 GB
Как cкачать? Как скачать Драгоценный подарок через торрент | qTorrent

% Раздел Тема Автор DL S | L
Кино СССР [ 1.09 GB ] Драгоценный подарок [1956 СССР DVDRip-AVC от AVP Studio] AVP Studio Скачать
1 | 0
Кино СССР [ 745 MB ] Драгоценный подарок [1956 СССР DVDRip от AVP Studio] AVP Studio Скачать
1 | 0

28-11-2019 20:33  

Отключить всю рекламу на сайте

    Дорогой пользователь! Огромная просьба, поблагодарите релизера, оцените раздачу и оставьте свои комментарий, если Вы скачали Драгоценный подарок через торрент бесплатно! Внесите свою лепту в развитие PiratBit!
    Комментировать посты могут только пользователи прошедшие не сложную регистрацию
    Показать сообщения:    

    Драгоценный подарок через торрент
    Скачать бесплатно Драгоценный подарок
    Драгоценный подарок скачать торрент
    Драгоценный подарок смотреть онлайн
    Cкачать фильм Драгоценный подарок бесплатно
    Драгоценный подарок скачать торрент в хорошем качестве
    Драгоценный подарок смотреть онлайн бесплатно в хорошем качестве


    Вы не можете начинать темы
    Вы не можете отвечать на сообщения
    Вы не можете редактировать свои сообщения
    Вы не можете удалять свои сообщения
    Вы не можете голосовать в опросах
    Вы не можете прикреплять файлы к сообщениям
    Вы можете скачивать файлы