Мега распродажа FORZA HORIZON 4 ULTIMATE+ВСЕ DLC+ОНЛАЙН всего за 499р. 349 руб. (супер цена). Внимание количество ограничено!!!

iTunes

1+1

iTunes

мы

iTunes

1

1 сезон

Чернобыль

1 сезон

Ральф против интернета

Лицензия

ПШазам

8 сезон

Игра престолов

Лицензия

30
pack

ВАЖНО

!!Акция!!

Alien_RageХит недели

RePack

Resident Evil 21

ИГРА 18+

pack

RePack

Metro:Exodus

!!Акция!!

Alien_Rage

RePack

fifa19

RePack

Assassins Creed: Odyssey

RePack

NEED FOR SPEED™ PAYBACK

3 сезон

9 сезон

Бесстыжие 9 сезон

Все сериалы

все сериалы на PB.wtf

RePack

FAR CRY 5
Ребята, катастрофически не хватает 2730р. для оплаты серверов за ИЮНЬ (всвязи с блокировками трафик упал в 3 раза), 1-2р., выручайте.
  

Ходячие мертвецы / The Walking Dead / Сезон: 4 / Серии 1-16 из 16 (Эрнест Р. Дикерсон) [2013, США, ужасы, триллер, драма, WEB-DL 720p] MVO FOX + MVO LostFilm + Original pb.wtf

Скачать  

19-11-2013 09:45 Ходячие мертвецы Скачать торрент  

vays
на этот сезон - нетpb.wtf



19-11-2013 20:32 Ходячие мертвецы Скачать торрент  

Добавлена 6 серия!
Просьба перекачать раздачу!

pb.wtf



19-11-2013 20:45 Ходячие мертвецы Скачать торрент  

скучный сезон,надеюсь "новые люди" в команде разбавят этот компот...pb.wtf



23-11-2013 23:23 Ходячие мертвецы Скачать торрент  

Не понимаю,переключаю на вторую дорожку,а там тишина,тобиш оригинальный язык - английский. Что я делаю не так?pb.wtf



24-11-2013 06:30 Ходячие мертвецы Скачать торрент  

CardianT
вторая дорожка - это озвучка LostFilm, английского там быть не может, никак.
Не используйте Windows MediaPlayer, я рекомендую VLC
http://get.videolan.org/vlc/2.1.1/win32/vlc-2.1.1-win32.exe
pb.wtf



25-11-2013 12:49 Ходячие мертвецы Скачать торрент  

Messa-fan писал(а):

CardianT
вторая дорожка - это озвучка LostFilm, английского там быть не может, никак.
Не используйте Windows MediaPlayer, я рекомендую VLC
http://get.videolan.org/vlc/2.1.1/win32/vlc-2.1.1-win32.exe

У меня 3 разных плеера и на каждом 2-ая дорожка английская. Использовал GOM,kmplayer и стандартный он винды.pb.wtf



25-11-2013 12:51 Ходячие мертвецы Скачать торрент  

CardianT
какая именно серия?pb.wtf



25-11-2013 13:53 Ходячие мертвецы Скачать торрент  

Messa-fan писал(а):

CardianT
какая именно серия?

Ну вторая точно.pb.wtf



25-11-2013 14:02 Ходячие мертвецы Скачать торрент  

CardianT
скриншот  
Сэмпл со второй серии http://multi-up.com/926690
Общее
Уникальный идентификатор : 208689949106018357162561639192098389262 (0x9D0038E298C86F54906B04B49D5E3D0E)
Полное имя : The.Walking.Dead.s04e02.WEBDL.720p.2xMVO.mkv
Формат : Matroska
Версия формата : Version 4 / Version 2
Размер файла : 1,52 Гбайт
Продолжительность : 43 м.
Общий поток : 5052 Кбит/сек
Название фильма : The.Walking.Dead.s04e02 by Messa-fan
Дата кодирования : UTC 2013-10-30 12:19:45
Программа кодирования : mkvmerge v6.4.1 ('Omega Point') built on Sep 16 2013 22:05:10
Библиотека кодирования : libebml v1.3.0 + libmatroska v1.4.1

Видео
Идентификатор : 1
Формат : AVC
Формат/Информация : Advanced Video Codec
Профиль формата : High@L3.1
Параметр CABAC формата : Нет
Параметр ReFrames формата : 2 кадра
Идентификатор кодека : V_MPEG4/ISO/AVC
Продолжительность : 43 м.
Битрейт : 3991 Кбит/сек
Ширина : 1280 пикселей
Высота : 718 пикселей
Соотношение сторон : 16:9
Режим частоты кадров : Постоянный
Частота кадров : 23,976 кадра/сек
Цветовое пространство : YUV
Субдискретизация насыщенности : 4:2:0
Битовая глубина : 8 бит
Тип развёртки : Прогрессивная
Бит/(Пиксели*Кадры) : 0.181
Размер потока : 1,20 Гбайт (79%)
Заголовок : The.Walking.Dead.s04e02 by Messa-fan
Язык : English
Default : Да
Forced : Нет
Основные цвета : BT.709
Характеристики трансфера : BT.709
Коэффициенты матрицы : BT.709

Аудио #1
Идентификатор : 2
Формат : AC-3
Формат/Информация : Audio Coding 3
Расширение режима : CM (complete main)
Параметр Endianness формата : Big
Идентификатор кодека : A_AC3
Продолжительность : 43 м.
Вид битрейта : Постоянный
Битрейт : 192 Кбит/сек
Каналы : 2 канала
Расположение каналов : Front: L R
Частота : 48,0 КГц
Битовая глубина : 16 бит
Метод сжатия : С потерями
Размер потока : 59,1 Мбайт (4%)
Заголовок : MVO FOX
Язык : Russian
Default : Да
Forced : Нет

Аудио #2
Идентификатор : 3
Формат : AC-3
Формат/Информация : Audio Coding 3
Расширение режима : CM (complete main)
Параметр Endianness формата : Big
Идентификатор кодека : A_AC3
Продолжительность : 43 м.
Вид битрейта : Постоянный
Битрейт : 384 Кбит/сек
Каналы : 2 канала
Расположение каналов : Front: L R
Частота : 48,0 КГц
Битовая глубина : 16 бит
Метод сжатия : С потерями
Размер потока : 118 Мбайт (8%)
Заголовок : MVO LostFilm
Язык : Russian
Default : Нет
Forced : Нет

Аудио #3
Идентификатор : 4
Формат : AC-3
Формат/Информация : Audio Coding 3
Расширение режима : CM (complete main)
Параметр Endianness формата : Big
Идентификатор кодека : A_AC3
Продолжительность : 43 м.
Вид битрейта : Постоянный
Битрейт : 384 Кбит/сек
Каналы : 2 канала
Расположение каналов : Front: L R
Частота : 48,0 КГц
Битовая глубина : 16 бит
Метод сжатия : С потерями
Размер потока : 118 Мбайт (8%)
Заголовок : Original
Язык : English
Default : Нет
Forced : Нет
pb.wtf



25-11-2013 14:51 Ходячие мертвецы Скачать торрент  

Всё разобрался спасибо,проблема была именно в GOM,через кмплаер всё идёт должным образом)pb.wtf



26-11-2013 17:46 Ходячие мертвецы Скачать торрент  

Добавлена 7 серия!
Просьба перекачать раздачу!

pb.wtf



27-11-2013 12:50 Ходячие мертвецы Скачать торрент  

начинается интересноеpb.wtf



28-11-2013 23:23 Ходячие мертвецы Скачать торрент  

Да вот, интересное внезапно закончилось,какая то тягомотина началась.pb.wtf



03-12-2013 17:44 Ходячие мертвецы Скачать торрент  

Добавлена 8 серия!
Следующая серия будет показана в США 09.02.2014!

pb.wtf



03-12-2013 22:52 Ходячие мертвецы Скачать торрент  

8-я серия возобновила интригу.
Как достал этот губернатор не доделаный,рад что не увижу его тупую рожу дальше. Предводитель с мордой лоха,ну где такое видано?
pb.wtf



04-12-2013 07:57 Ходячие мертвецы Скачать торрент  

Jeck2000 писал(а):

УРААААААААААААААААААААА !!

Прикол в том, что озвучка FOX и LOST практически идентичная по голосам

Вот абсолютно солидарен, только теперь ждать февраля, пауза у них :(pb.wtf



Друзья, наш проект PiratBit построен на чистом энтузиазме. Денег от рекламы он приносит мало, потому как нет хороших, богатых рекламодателей, которые бы хотели работать с сайтами, которые нарушают законодательство той или иной страны, да и вешать какую-то шлако-рекламу с вирусами тоже мы не хотим, поскольку мы уважаем своих пользователей и Ваша безопасность на нашем сайте для нас превыше всего. В связи с этим, мы вынуждены просить помощи у каждого из Вас. Каких-то 3, 5, 10 рублей для каждого из Вас по большому счету копейки, а для нас это будет хорошая поддержка.
Нашими приоритетами всегда были качество и быстрота везде и во всем!!!
Технически так сложилось, чтобы все "летало" мы используем 4 мощных абузоустойчивых сервера, каждый из которых стоит 100$ в месяц.
Ребята, мы будем рады любой помощи, надеюсь на понимание Devi...

Важно, если ваш платеж составляет больше 100 руб.(единоразово) то мы для вас отключим рекламу на месяц, 200=2мес., 300=3мес., 400=4мес., если больше чем 499 руб.(единоразово) то на 6 месяцев, УКАЗЫВАЙТЕ СВОЙ НИК В ПРИМЕЧАНИИ К ПЛАТЕЖУ!

QIWI
Яндекс деньги,MasterCard,Maestro,Visa
WebMoney,Steam,Payeer,СберБанк,Мобильный,BitCoin,PayPal

06-12-2013 09:54 Ходячие мертвецы Скачать торрент  

почему 9 серия долго выходить будет?pb.wtf



07-12-2013 12:29 Ходячие мертвецы Скачать торрент  

maratowitch писал(а):

почему 9 серия долго выходить будет?

Скоро Новый Год и Рождество всем отдохнуть хочется, вот поэтому и перерыв pb.wtf



08-12-2013 12:51 Ходячие мертвецы Скачать торрент  

а как же подарок?pb.wtf



09-12-2013 13:15 Ходячие мертвецы Скачать торрент  

Этот сезончик "жаркий" получился,смотрел не отрываясь )Спасибо автору)pb.wtf



10-12-2013 15:29 Ходячие мертвецы Скачать торрент  

Последняя серия тронула pb.wtf



10-12-2013 19:09 Ходячие мертвецы Скачать торрент  

скорее бы продолжение увидеть yespb.wtf



25-12-2013 10:27 Ходячие мертвецы Скачать торрент  

Сериал зацепил , вообще редко смотрю (сериалы) . Жду с нетерпением продолжения .pb.wtf



27-12-2013 13:54 Ходячие мертвецы Скачать торрент  

Губернатор достал .. и путь ему туда куда его отправили! :ireful: pb.wtf



31-12-2013 02:30 Ходячие мертвецы Скачать торрент  

8-мая серия это что-то-то с чемто после него хочу большего!!! дайте еще сериииииии!!!!!!!!!!!!!!!!pb.wtf



Дорогой пользователь! Огромная просьба, поблагодарите релизера, оцените раздачу и оставьте свои комментарий, если Вы скачали Ходячие мертвецы через торрент бесплатно! Внесите свою лепту в развитие PiratBit!
Комментировать посты могут только пользователи прошедшие не сложную регистрацию
Показать сообщения:    

Ходячие мертвецы через торрент
Скачать бесплатно Ходячие мертвецы
Ходячие мертвецы скачать торрент
Ходячие мертвецы смотреть онлайн
Cкачать фильм Ходячие мертвецы бесплатно
Ходячие мертвецы скачать торрент в хорошем качестве
Ходячие мертвецы смотреть онлайн бесплатно в хорошем качестве


Вы не можете начинать темы
Вы не можете отвечать на сообщения
Вы не можете редактировать свои сообщения
Вы не можете удалять свои сообщения
Вы не можете голосовать в опросах
Вы не можете прикреплять файлы к сообщениям
Вы можете скачивать файлы