Ссылка на приватное зеркало всего за 1$. Внимание количество ограничено!!!


iTunes

1+1

iTunes

мы

WEB-DL

1

iTunes

Чернобыль

iTunes

Ральф против интернета

Лицензия

ПШазам

Лицензия

Оно 2

WEB-DL

30
pack

Вам бонус

ВАЖНО

!!Акция!!

Alien_RageХит недели

RePack

Resident Evil 21

ИГРА 18+

pack

RePack

jed

!!Акция!!

Alien_Rage

RePack

fifa19

RePack

Assassins Creed: Odyssey

RePack

NEED FOR SPEED™ PAYBACK

4 сезон

9 сезон

Бесстыжие 9 сезон

Все сериалы

все сериалы на PB.wtf

RePack

FAR CRY 5
Ребята, катастрофически не хватает 1900р. для оплаты серверов за Октябрь (всвязи с блокировками трафик упал в 3 раза), 1-2р., выручайте.
  

Ходячие мертвецы / The Walking Dead / Сезон: 5 / Серии 10 (Эрнест Р. Дикерсон) [2014, США, ужасы, триллер, драма, HDTVRip 720p) VO Kerob pb.wtf

Ходячие мертвецы через торрент pb.wtf

Размер: 1.06 GB | Добавлен: 4 года 9 мес. назад | Торрент скачан:159 раз
Скачать  

16-02-2015 09:23 Ходячие мертвецы Скачать торрент  

Информация о фильме

Название: Ходячие мертвецы

Оригинальное название: The Walking Dead

Год выхода: 2014

Выпущено: США

Продолжительность: 00:43:05

Перевод: Любительский одноголосый закадровый [Kerob]

Жанр: Ужасы, триллер, драма

Режиссер: Фрэнк Дарабонт

В ролях: Джон Бернтал, Джеффри ДеМун, Лори Холден, Эндрю Линкольн, Адам Минарович, Чендлер Риггз, Майкл Рукер, Сара Уэйн Кэллис

Описание: После страшной болезни, превратившей жителей Земли в зомби, небольшая группа пока еще живых людей изо дня в день борется за выживание в новом, враждебном мире. Под предводительством бывшего полицейского Рика они ищут безопасное для жизни место, но зомби — это не самое страшное, что их ждет, основная опасность — это жестокое внутреннее соперничество среди выживших.



Файл

Качество: HDTVRip 720p
Формат: MKV, AVC
Видео: MPEG-AVC, 3300 kbps, 1280x720, 23,976 fps
Аудио Rus: MP3, 192 kb/s, 2ch / 48 kHz
Общее
Уникальный идентификатор : 181204212258336534011504260019961415870 (0x8852A96E976FA915B9470FD1B74748BE)
Полное имя : D:\Торенты\The.Walking.Dead.S05E10.HDTV.Kerob.mkv
Формат : Matroska
Версия формата : Version 2
Размер файла : 1,06 Гбайт
Продолжительность : 43 м.
Общий поток : 3478 Кбит/сек
Дата кодирования : UTC 2015-02-16 07:32:40
Программа кодирования : mkvmerge v3.3.0 ('Language') built on Mar 24 2010 14:59:24
Библиотека кодирования : Lavf54.63.104

Видео
Идентификатор : 1
Формат : MPEG-4 Visual
Профиль формата : Simple@L1
Параметр BVOP формата : Нет
Параметр QPel формата : Нет
Параметр GMC формата : Без точки перехода
Параметр матрицы формата : Default (H.263)
Идентификатор кодека : V_MPEG4/ISO/ASP
Идентификатор кодека/Информация : Advanced Simple Profile
Продолжительность : 43 м.
Битрейт : 3217 Кбит/сек
Ширина : 1280 пикселей
Высота : 720 пикселей
Соотношение сторон : 16:9
Режим частоты кадров : Постоянный
Частота кадров : 25,000 кадров/сек
Цветовое пространство : YUV
Субдискретизация насыщенности : 4:2:0
Битовая глубина : 8 бит
Тип развёртки : Прогрессивная
Метод сжатия : С потерями
Бит/(Пиксели*Кадры) : 0.140
Размер потока : 1004 Мбайт (92%)
Библиотека кодирования : Lavc54.92.100
Default : Нет
Forced : Нет

Аудио
Идентификатор : 2
Формат : MPEG Audio
Версия формата : Version 1
Профиль формата : Layer 3
Идентификатор кодека : A_MPEG/L3
Идентификатор кодека/Подсказка : MP3
Продолжительность : 43 м.
Вид битрейта : Постоянный
Битрейт : 192 Кбит/сек
Каналы : 2 канала
Частота : 44,1 КГц
Метод сжатия : С потерями
Размер потока : 59,9 Мбайт (6%)
Default : Да
Forced : Нет
pb.wtf
!Ворон писал(а):

Временно, до появления лучшего перевода. Обновлять не буду.



Скачать Ходячие мертвецы через торрент http://pic.kartinco.top/images/7/d1l7a.jpg Скачать фильм Ходячие мертвецы через торрент бесплантно в хорошем качестве Описание: После страшной болезни, превратившей жителей Земли в зомби, небольшая группа пока еще живых людей изо дня в день борется за ... 10 10 7
Торрент: Зарегистрирован [2015-02-16 09:28] · скачан: 159 раз
Статус: T временная
Размер: 1.06 GB
Как cкачать? Как скачать Ходячие мертвецы через торрент | qTorrent

28-11-2019 20:33  

Отключить всю рекламу на сайте

    Дорогой пользователь! Огромная просьба, поблагодарите релизера, оцените раздачу и оставьте свои комментарий, если Вы скачали Ходячие мертвецы через торрент бесплатно! Внесите свою лепту в развитие PiratBit!
    Комментировать посты могут только пользователи прошедшие не сложную регистрацию
    Показать сообщения:    

    Ходячие мертвецы через торрент
    Скачать бесплатно Ходячие мертвецы
    Ходячие мертвецы скачать торрент
    Ходячие мертвецы смотреть онлайн
    Cкачать фильм Ходячие мертвецы бесплатно
    Ходячие мертвецы скачать торрент в хорошем качестве
    Ходячие мертвецы смотреть онлайн бесплатно в хорошем качестве


    Вы не можете начинать темы
    Вы не можете отвечать на сообщения
    Вы не можете редактировать свои сообщения
    Вы не можете удалять свои сообщения
    Вы не можете голосовать в опросах
    Вы не можете прикреплять файлы к сообщениям
    Вы можете скачивать файлы