Ссылка на приватное зеркало нашего сайта всего за 1$. Внимание количество ограничено!!!

2 сезон

iTunes

1 сезон

1

2 сезон

2 сезон

iTunes

1 сезон

RePack

30

Ultimate

ВАЖНО

ИГРА 18+

pack

RePack

MK11
pack

Забери бонус

RePack

jed

!!Акция!!

Alien_Rage

RePack

fifa19

RePack

Assassins Creed: Odyssey

RePack

NEED FOR SPEED™ PAYBACK

4 сезон

9 сезон

Бесстыжие 9 сезон

Все сериалы

все сериалы на PB.wtf

RePack

FAR CRY 5
  

Красная дорога / The Red Road / Сезон: 1 / Серии: 1-6 из 6 (Лодж Х. Керриган, Дж. Майкл Муро, Джеймс Грэй, Терри МакДонаф.) [2014, Драма, WEB-DLRip] DVO (HamsterStudio) + Original pb.wtf

Красная дорога через торрент pb.wtf

Размер: 2.95 GB | Добавлен: 5 лет 9 мес. назад | Торрент скачан:43 раза
Скачать  

20-02-2015 12:14 Красная дорога Скачать торрент  


Красная дорога / The Red Road
Год выпуска: 2014
Страна: США
Жанр: Драма
Продолжительность: ~00:45:00
Перевод: Профессиональный многоголосый

Режиссер: Лодж Х. Керриган, Дж. Майкл Муро, Джеймс Грэй, Терри МакДонаф



В ролях: Мартин Хендерсон, Джейсон Момоа, Джулианна Николсон, Тамара Тюни, Кайова Гордон, Элли Гонино, Анналиса Бассо, Гэри Фармер, Брук Монтальво, Энтони Короне и др.

Описание: В центре сюжета шериф, который изо всех сил пытается сохранить свою семью и одновременно предотвратить столкновение двух противоборствующих общин…

Качество: WEB-DLRip
Формат: AVI
Видео кодек: XviD
Аудио кодек: MP3
Видео: 720x400 (16:9), 23.976 fps, 1 311 Kbps (0.190 bit/pixel)
Аудио#1: 48.0 KHz, 2 ch, 128 Kbps, CBR Русский
Аудио#2: 48.0 KHz, 2 ch, 128 Kbps, CBR Английский
Релиз от:
Перевод: Vela, SheevaMaison, KametaIsrailova, thatsmyname, kiberline
Озвучка: Андрей Жариков и Анастасия Снегирёва
Работа с видео, монтаж и сведение звука: Kiberline
General
Complete name : G:\раздачи\The.Red.Road.s01.WEB-DLRip.HamsterStudio.Org\The.Red.Road.s01e01.WEB-DLRip.HamsterStudio.Org.avi
Format : AVI
Format/Info : Audio Video Interleave
File size : 503 MiB
Duration : 44mn 28s
Overall bit rate : 1 581 Kbps
Writing application : VirtualDubModRus 1.5.10.2 (build 2540/release)
Writing library : VirtualDubMod build 2540/release

Video
ID : 0
Format : MPEG-4 Visual
Format profile : Advanced Simple@L5
Format settings, BVOP : 1
Format settings, QPel : No
Format settings, GMC : No warppoints
Format settings, Matrix : Default (H.263)
Codec ID : XVID
Codec ID/Hint : XviD
Duration : 44mn 28s
Bit rate : 1 311 Kbps
Width : 720 pixels
Height : 400 pixels
Display aspect ratio : 16:9
Frame rate : 23.976 fps
Color space : YUV
Chroma subsampling : 4:2:0
Bit depth : 8 bits
Scan type : Progressive
Compression mode : Lossy
Bits/(Pixel*Frame) : 0.190
Stream size : 417 MiB (83%)
Writing library : XviD 1.2.1 (UTC 2008-12-04)

Audio #1
ID : 1
Format : MPEG Audio
Format version : Version 1
Format profile : Layer 3
Mode : Joint stereo
Mode extension : MS Stereo
Codec ID : 55
Codec ID/Hint : MP3
Duration : 44mn 28s
Bit rate mode : Constant
Bit rate : 128 Kbps
Channel(s) : 2 channels
Sampling rate : 48.0 KHz
Compression mode : Lossy
Stream size : 40.7 MiB (8%)
Alignment : Aligned on interleaves
Interleave, duration : 42 ms (1.00 video frame)
Interleave, preload duration : 504 ms

Audio #2
ID : 2
Format : MPEG Audio
Format version : Version 1
Format profile : Layer 3
Codec ID : 55
Codec ID/Hint : MP3
Duration : 44mn 28s
Bit rate mode : Constant
Bit rate : 128 Kbps
Channel(s) : 2 channels
Sampling rate : 48.0 KHz
Compression mode : Lossy
Stream size : 40.7 MiB (8%)
Alignment : Aligned on interleaves
Interleave, duration : 42 ms (1.00 video frame)
Interleave, preload duration : 504 ms
Writing library : LAME3.99r
Encoding settings : -m s -V 4 -q 2 -lowpass 17 -b 128

pb.wtf



Скачать Красная дорога через торрент http://pic1.kartinco.top/images/9/sdwe2.jpg Скачать фильм Красная дорога через торрент бесплантно в хорошем качестве Описание: В центре сюжета шериф, который изо всех сил пытается сохранить свою семью и одновременно предотвратить столкновение двух ... 10 10 3
Торрент: Зарегистрирован [2015-02-20 12:14] · скачан: 43 раз
Статус: √ проверено
Размер: 2.95 GB
Как cкачать? Как скачать Красная дорога через торрент | qTorrent

28-11-2019 20:33  

Отключить всю рекламу на сайте

    Дорогой пользователь! Огромная просьба, поблагодарите релизера, оцените раздачу и оставьте свои комментарий, если Вы скачали Красная дорога через торрент бесплатно! Внесите свою лепту в развитие PiratBit!
    Комментировать посты могут только пользователи прошедшие не сложную регистрацию
    Показать сообщения:    

    Красная дорога через торрент
    Скачать бесплатно Красная дорога
    Красная дорога скачать торрент
    Красная дорога смотреть онлайн
    Cкачать фильм Красная дорога бесплатно
    Красная дорога скачать торрент в хорошем качестве
    Красная дорога смотреть онлайн бесплатно в хорошем качестве


    Вы не можете начинать темы
    Вы не можете отвечать на сообщения
    Вы не можете редактировать свои сообщения
    Вы не можете удалять свои сообщения
    Вы не можете голосовать в опросах
    Вы не можете прикреплять файлы к сообщениям
    Вы можете скачивать файлы