Ссылка на приватное зеркало нашего сайта всего за 1$. Внимание количество ограничено!!!

2 сезон

iTunes

1 сезон

1

2 сезон

2 сезон

iTunes

1 сезон

RePack

30

Новинка

ВАЖНО

ИГРА 18+

pack

RePack

MK11
pack

Забери бонус

RePack

jed

!!Акция!!

Alien_Rage

RePack

fifa19

RePack

Assassins Creed: Odyssey

RePack

NEED FOR SPEED™ PAYBACK

4 сезон

9 сезон

Бесстыжие 9 сезон

Все сериалы

все сериалы на PB.wtf

RePack

FAR CRY 5
  

Замри и гори / Остановись и гори / Halt and Catch Fire / Сезон: 2 / Серии 1-10 из 10 (Хуан Хосе Кампанелла / Juan José Campanella, Лариса Кондрацки / Larysa Kondracki, Карин Кусама / Karyn Kusama) [2015, США, драма, WEB-DLRip] MVO [NewStudio] pb.wtf

Замри и гори через торрент pb.wtf

Размер: 5.37 GB | Добавлен: 5 лет 3 мес. назад | Торрент скачан:79 раз
Скачать  

04-06-2015 01:23 Замри и гори Скачать торрент  

Замри и гори / Остановись и гори / Halt and Catch Fire
«Битва за CTRL Начинается»


  • Год выпуска: 2015
  • Страна: США
  • Жанр: драма

  • Продолжительность: 00:43:21 (Серия)
  • Перевод: Профессиональный многоголосый закадровый [NewStudio]

  • Режиссер: Хуан Хосе Кампанелла / Juan José Campanella, Лариса Кондрацки / Larysa Kondracki, Карин Кусама / Karyn Kusama
  • В ролях:

    Ли Пейс (Joe MacMillan), Скут МакНэри (Gordon Clark), Маккензи Дэвис (Cameron Howe), Керри Бише (Donna Clark), Тоби Хасс (John Bosworth), Аугуст Эмерсон (Lev Levitan), Эрик Гойнс (Larry), Купер Эндрюс (Yo-Yo), Рэндолл П. Хевенс (Stan), Уинг Лью (Kevin), Гэбриел Манак (Arki), Ник Пупо (Carl)

  • Описание:
    Сюжет разворачивается в 1980-х. Сериал рассказывает о компьютерном буме от лица мечтателя, инженера и вундеркинда, чьи инновации столкнулись с корпоративными гигантами того времени.
  • Рейтинг:



  • Качество: WEB-DLRip
  • Формат: :AVI
  • Видео кодек: XviD
  • Аудио кодек: MP3
  • Видео: 720x400 (16:9), 1503 kbps, 23,976 fps, 0,218 bpp
  • Аудио №1: Русский 2.0 / 48 kHz / 128 kbps
  • Аудио №2: Английский 2.0 / 48 kHz / 128 kbps
  • Релиз от: GEKADOL

    Код:

    Внимание! Раздача ведётся путём добавления новых серий; при каждом добавлении создаётся новый торрент. Чтобы начать докачку новой серии, пользователям необходимо сделать следующее:
    (1) остановить скачивание,
    (2) удалить старый торрент у себя из клиента (старые серии удалять не надо),
    (3) скачать новый торрент и запустить его у себя в клиенте вместо старого, при этом указать клиенту путь в старую папку куда и должно происходить скачивание новых серий.
    Ваш клиент при этом должен произвести хеширование (проверку) старой папки (если не производит сам - помогите ему сделать это), и будет докачивать только те серии которых у вас ещё нет. Старые серии при этом не удаляются, а продолжают раздаваться!
    Eсли вы уже удалили старые серии, то предотвратить повторную закачку старых серий можно, отжав галочку в соответствующих местах при запуске нового торрента. По возможности, желательно не удалять старые серии как можно дольше чтобы релизёр не столько продолжал раздавать старые серии, а смог сконцентрироваться на новых.


    Код:

    General
    Complete name                            : F:\Halt.and.Catch.Fire.s02e01.WEBDLRip.NewStudio.TV.avi
    Format                                   : AVI
    Format/Info                              : Audio Video Interleave
    File size                                : 550 MiB
    Duration                                 : 43mn 21s
    Overall bit rate                         : 1 773 Kbps
    Writing application                      : VirtualDubMod 1.5.10.2 (build 2540/release)
    Writing library                          : VirtualDubMod build 2540/release

    Video
    ID                                       : 0
    Format                                   : MPEG-4 Visual
    Format profile                           : Advanced Simple@L5
    Format settings, BVOP                    : 2
    Format settings, QPel                    : No
    Format settings, GMC                     : No warppoints
    Format settings, Matrix                  : Default (MPEG)
    Codec ID                                 : XVID
    Codec ID/Hint                            : XviD
    Duration                                 : 43mn 21s
    Bit rate                                 : 1 503 Kbps
    Width                                    : 720 pixels
    Height                                   : 400 pixels
    Display aspect ratio                     : 16:9
    Frame rate                               : 23.976 fps
    Color space                              : YUV
    Chroma subsampling                       : 4:2:0
    Bit depth                                : 8 bits
    Scan type                                : Progressive
    Compression mode                         : Lossy
    Bits/(Pixel*Frame)                       : 0.218
    Stream size                              : 466 MiB (85%)
    Writing library                          : XviD 64

    Audio #1
    ID                                       : 1
    Format                                   : MPEG Audio
    Format version                           : Version 1
    Format profile                           : Layer 3
    Mode                                     : Joint stereo
    Mode extension                           : MS Stereo
    Codec ID                                 : 55
    Codec ID/Hint                            : MP3
    Duration                                 : 43mn 21s
    Bit rate mode                            : Constant
    Bit rate                                 : 128 Kbps
    Channel(s)                               : 2 channels
    Sampling rate                            : 48.0 KHz
    Compression mode                         : Lossy
    Stream size                              : 39.7 MiB (7%)
    Alignment                                : Aligned on interleaves
    Interleave, duration                     : 42 ms (1.00 video frame)
    Interleave, preload duration             : 504 ms

    Audio #2
    ID                                       : 2
    Format                                   : MPEG Audio
    Format version                           : Version 1
    Format profile                           : Layer 3
    Mode                                     : Joint stereo
    Mode extension                           : MS Stereo
    Codec ID                                 : 55
    Codec ID/Hint                            : MP3
    Duration                                 : 43mn 21s
    Bit rate mode                            : Constant
    Bit rate                                 : 128 Kbps
    Channel(s)                               : 2 channels
    Sampling rate                            : 48.0 KHz
    Compression mode                         : Lossy
    Stream size                              : 39.7 MiB (7%)
    Alignment                                : Aligned on interleaves
    Interleave, duration                     : 42 ms (1.00 video frame)
    Interleave, preload duration             : 504 ms
    Writing library                          : LAME3.99r
    Encoding settings                        : -m j -V 4 -q 2 -lowpass 17 -b 128


    Скриншоты:
    скриншот   скриншот   скриншот   скриншот   скриншот  
    скриншот  

    Раздача ведётся путём добавления новых серий. Добавлена 10 серия (06.08.2015).Просьба перекачать торрент файл.

    pb.wtf



  • Скачать Замри и гори через торрент http://i2.imageban.ru/out/2015/06/04/1f3f12e982edb2e0e0617c2f2e58b9da.png Скачать фильм Замри и гори через торрент бесплантно в хорошем качестве Описание: Сюжет разворачивается в 1980-х. Сериал рассказывает о компьютерном буме от лица мечтателя, инженера и вундеркинда, чьи инновации ... 7.8 10 8
    Info! Золотая раздача, скачанное не засчитывается.
    Торрент: Зарегистрирован [2015-08-06 01:06] · скачан: 79 раз
    Статус: √ проверено
    Размер: 5.37 GB
    Как cкачать? Как скачать Замри и гори через торрент | qTorrent



    Последний раз редактировалось: GEKADOL (2015-08-06 01:06), всего редактировалось 10 раз(а)

    28-11-2019 20:33  

    Отключить всю рекламу на сайте

    04-06-2015 03:20 Замри и гори Скачать торрент  

    думал что все не будет 2 сезона)отличный сериалpb.wtf



    04-06-2015 04:12 Замри и гори Скачать торрент  

    kpuctaluk писал(а):

    думал что все не будет 2 сезона)отличный сериал

    Согласен! Но нас таких не много) pb.wtf



    06-06-2015 07:20 Замри и гори Скачать торрент  

    GEKADOL писал(а):

    kpuctaluk писал(а):

    думал что все не будет 2 сезона)отличный сериал

    Согласен! Но нас таких не много)

    Больше, чем кажется.pb.wtf



    17-06-2015 12:35 Замри и гори Скачать торрент  

    kwazimod писал(а):

    GEKADOL писал(а):

    kpuctaluk писал(а):

    думал что все не будет 2 сезона)отличный сериал

    Согласен! Но нас таких не много)

    Больше, чем кажется.

    ))) Я бы согласился если бы не видел сколько людей скачало)) На сегодня 34) Но не важно) pb.wtf



    23-07-2015 10:58 Замри и гори Скачать торрент  

    Познавательный,интересный и хорошо снятый сериал,надеюсь,так и останется!)pb.wtf



      Дорогой пользователь! Огромная просьба, поблагодарите релизера, оцените раздачу и оставьте свои комментарий, если Вы скачали Замри и гори через торрент бесплатно! Внесите свою лепту в развитие PiratBit!
      Комментировать посты могут только пользователи прошедшие не сложную регистрацию
      Показать сообщения:    

      Замри и гори через торрент
      Скачать бесплатно Замри и гори
      Замри и гори скачать торрент
      Замри и гори смотреть онлайн
      Cкачать фильм Замри и гори бесплатно
      Замри и гори скачать торрент в хорошем качестве
      Замри и гори смотреть онлайн бесплатно в хорошем качестве


      Вы не можете начинать темы
      Вы не можете отвечать на сообщения
      Вы не можете редактировать свои сообщения
      Вы не можете удалять свои сообщения
      Вы не можете голосовать в опросах
      Вы не можете прикреплять файлы к сообщениям
      Вы можете скачивать файлы