Ссылка на приватное зеркало нашего сайта всего за 1$. Внимание количество ограничено!!!

2 сезон

iTunes

1 сезон

1

2 сезон

2 сезон

iTunes

1 сезон

RePack

30

Новинка

ВАЖНО

ИГРА 18+

pack

RePack

MK11
pack

Забери бонус

RePack

jed

!!Акция!!

Alien_Rage

RePack

fifa19

RePack

Assassins Creed: Odyssey

RePack

NEED FOR SPEED™ PAYBACK

4 сезон

9 сезон

Бесстыжие 9 сезон

Все сериалы

все сериалы на PB.wtf

RePack

FAR CRY 5
  

Люди / Humans / Сезон: 1 / Серии 1-8 из 8 (Льюис Арнольд / Lewis Arnold, Сэмюэл Донован / Samuel Donovan, Чина Му-Ен / China Moo-Young) [2015, США, Великобритания, фантастика, драма, WEB-DL 720р, MVO] [BaibaKo] pb.wtf

Люди через торрент pb.wtf

Размер: 12.22 GB | Добавлен: 5 лет 3 мес. назад | Торрент скачан:120 раз
Скачать  

16-06-2015 01:35 Люди Скачать торрент  

Люди / Humans


  • Год выпуска: 2015
  • Страна: США, Великобритания
  • Жанр: фантастика, драма
  • Продолжительность: 00:45:26 (Серия)
  • Перевод: Профессиональный многоголосый закадровый [BaibaKo]

  • Режиссер: Льюис Арнольд / Lewis Arnold, Сэмюэл Донован / Samuel Donovan, Чина Му-Ен / China Moo-Young
  • В ролях:

    Eva-Jane Willis (Cafe Girl), Эмили Беррингтон (Niska), Джемма Чан (Anita), Пикси Дейвис (Sophie), Джек Дерджс (Simon), Sope Dirisu (Fred), Ребекка Фронт, Софи Гудинг (Sally Synth), Том Гудман-Хилл (Joe), Уильям Хёрт (George Millican), Иванно Джереми (Synth Max), Колин Морган (Leo)

  • Описание:
    Действие сериала развернется в параллельном мире, где чрезвычайную популярность приобрели новые гаджеты - высокотехнологичные роботы-слуги, которые внешне пугающе похожи на людей. Одного такого «помощника по хозяйству» приобретает живущая в пригороде семья. Вскоре они осознают, что совместная с машиной жизнь повлечет за собой жуткие последствия.
  • Рейтинг:



  • Качество: WEB-DL 720р
  • Формат: :MKV
  • Видео кодек: AVC
  • Аудио кодек: AC3
  • Видео: 4096 Кбит/сек, 1280*720 (16:9), в 25,000 кадров/сек, AVC
  • Аудио №1: русский 384 Кбит/сек, 48,0 КГц, 16 бит, 2 канала, AC-3 |[BaibaKo]|
  • Аудио №2: английский 224 Кбит/сек, 48,0 КГц, 16 бит, 2 канала, AC-3
  • Релиз от: GEKADOL

    Код:

    Внимание! Раздача ведётся путём добавления новых серий; при каждом добавлении создаётся новый торрент. Чтобы начать докачку новой серии, пользователям необходимо сделать следующее:
    (1) остановить скачивание,
    (2) удалить старый торрент у себя из клиента (старые серии удалять не надо),
    (3) скачать новый торрент и запустить его у себя в клиенте вместо старого, при этом указать клиенту путь в старую папку куда и должно происходить скачивание новых серий.
    Ваш клиент при этом должен произвести хеширование (проверку) старой папки (если не производит сам - помогите ему сделать это), и будет докачивать только те серии которых у вас ещё нет. Старые серии при этом не удаляются, а продолжают раздаваться!
    Eсли вы уже удалили старые серии, то предотвратить повторную закачку старых серий можно, отжав галочку в соответствующих местах при запуске нового торрента. По возможности, желательно не удалять старые серии как можно дольше чтобы релизёр не столько продолжал раздавать старые серии, а смог сконцентрироваться на новых.


    Код:

    Общее
    Уникальный идентификатор                 : 236197018243949894168099796222387025564 (0xB1B1E419F5752066A6691DA88AADF69C)
    Полное имя                               : F:\Humans (S01) HD720p. BaibaKo\Humans.s01e04.HD720p.WEB-DL.Rus.Eng.BaibaKo.tv.mkv
    Формат                                   : Matroska
    Версия формата                           : Version 4 / Version 2
    Размер файла                             : 1,55 Гбайт
    Продолжительность                        : 47 м.
    Общий поток                              : 4706 Кбит/сек
    Дата кодирования                         : UTC 2015-07-10 23:16:23
    Программа кодирования                    : mkvmerge v8.1.0 ('Psychedelic Postcard') 64bit
    Библиотека кодирования                   : libebml v1.3.1 + libmatroska v1.4.2
    DURATION                                 : 00:47:06.080000000
    NUMBER_OF_FRAMES                         : 88315
    NUMBER_OF_BYTES                          : 135651840
    _STATISTICS_WRITING_APP                  : mkvmerge v8.1.0 ('Psychedelic Postcard') 64bit
    _STATISTICS_WRITING_DATE_UTC             : 2015-07-10 23:16:23
    _STATISTICS_TAGS                         : BPS DURATION NUMBER_OF_FRAMES NUMBER_OF_BYTES

    Видео
    Идентификатор                            : 1
    Формат                                   : AVC
    Формат/Информация                        : Advanced Video Codec
    Профиль формата                          : High@L3.1
    Параметр CABAC формата                   : Да
    Параметр ReFrames формата                : 5 кадров
    Идентификатор кодека                     : V_MPEG4/ISO/AVC
    Продолжительность                        : 47 м.
    Битрейт                                  : 4096 Кбит/сек
    Ширина                                   : 1280 пикселей
    Высота                                   : 720 пикселей
    Соотношение сторон                       : 16:9
    Режим частоты кадров                     : Постоянный
    Частота кадров                           : 25,000 кадров/сек
    Цветовое пространство                    : YUV
    Субдискретизация насыщенности            : 4:2:0
    Битовая глубина                          : 8 бит
    Тип развёртки                            : Прогрессивная
    Бит/(Пиксели*Кадры)                      : 0.178
    Размер потока                            : 1,32 Гбайт (85%)
    Библиотека кодирования                   : x264 core 142 r2479 dd79a61
    Настройки программы                      : cabac=1 / ref=5 / deblock=1:0:0 / analyse=0x3:0x113 / me=umh / subme=8 / psy=1 / psy_rd=1.00:0.00 / mixed_ref=1 / me_range=16 / chroma_me=1 / trellis=1 / 8x8dct=1 / cqm=0 / deadzone=21,11 / fast_pskip=1 / chroma_qp_offset=-2 / threads=12 / lookahead_threads=2 / sliced_threads=0 / nr=0 / decimate=1 / interlaced=0 / bluray_compat=0 / constrained_intra=0 / bframes=3 / b_pyramid=2 / b_adapt=2 / b_bias=0 / direct=3 / weightb=1 / open_gop=0 / weightp=2 / keyint=250 / keyint_min=25 / scenecut=40 / intra_refresh=0 / rc_lookahead=50 / rc=2pass / mbtree=1 / bitrate=4096 / ratetol=1.0 / qcomp=0.60 / qpmin=0 / qpmax=69 / qpstep=4 / cplxblur=20.0 / qblur=0.5 / vbv_maxrate=17500 / vbv_bufsize=17500 / nal_hrd=none / filler=0 / ip_ratio=1.40 / aq=1:1.00
    Default                                  : Да
    Forced                                   : Нет
    Цветовой диапазон                        : Limited
    Основные цвета                           : BT.709
    Характеристики трансфера                 : BT.709
    Коэффициенты матрицы                     : BT.709
    DURATION                                 : 00:47:06.000000000
    NUMBER_OF_FRAMES                         : 70650
    NUMBER_OF_BYTES                          : 1446969624
    _STATISTICS_WRITING_APP                  : mkvmerge v8.1.0 ('Psychedelic Postcard') 64bit
    _STATISTICS_WRITING_DATE_UTC             : 2015-07-10 23:16:23
    _STATISTICS_TAGS                         : BPS DURATION NUMBER_OF_FRAMES NUMBER_OF_BYTES

    Аудио #1
    Идентификатор                            : 2
    Формат                                   : AC-3
    Формат/Информация                        : Audio Coding 3
    Расширение режима                        : CM (complete main)
    Параметр Endianness формата              : Big
    Идентификатор кодека                     : A_AC3
    Продолжительность                        : 47 м.
    Вид битрейта                             : Постоянный
    Битрейт                                  : 384 Кбит/сек
    Каналы                                   : 2 канала
    Расположение каналов                     : Front: L R
    Частота                                  : 48,0 КГц
    Битовая глубина                          : 16 бит
    Метод сжатия                             : С потерями
    Задержка видео                           : -80 мс.
    Размер потока                            : 129 Мбайт (8%)
    Язык                                     : Russian
    Default                                  : Да
    Forced                                   : Нет
    DURATION                                 : 00:47:06.016000000
    NUMBER_OF_FRAMES                         : 88313
    NUMBER_OF_BYTES                          : 79128448
    _STATISTICS_WRITING_APP                  : mkvmerge v8.1.0 ('Psychedelic Postcard') 64bit
    _STATISTICS_WRITING_DATE_UTC             : 2015-07-10 23:16:23
    _STATISTICS_TAGS                         : BPS DURATION NUMBER_OF_FRAMES NUMBER_OF_BYTES

    Аудио #2
    Идентификатор                            : 3
    Формат                                   : AC-3
    Формат/Информация                        : Audio Coding 3
    Расширение режима                        : CM (complete main)
    Параметр Endianness формата              : Big
    Идентификатор кодека                     : A_AC3
    Продолжительность                        : 47 м.
    Вид битрейта                             : Постоянный
    Битрейт                                  : 224 Кбит/сек
    Каналы                                   : 2 канала
    Расположение каналов                     : Front: L R
    Частота                                  : 48,0 КГц
    Битовая глубина                          : 16 бит
    Метод сжатия                             : С потерями
    Задержка видео                           : -5 мс.
    Размер потока                            : 75,5 Мбайт (5%)
    Язык                                     : English
    Default                                  : Нет
    Forced                                   : Нет




    Скриншоты:
    скриншот   скриншот   скриншот   скриншот   скриншот  
    скриншот  

    Раздача ведётся путём добавления новых серий. Добавлена 8 серия (07.08.2015).Просьба перекачать торрент файл.

    pb.wtf



  • Скачать Люди через торрент http://i1.imageban.ru/out/2015/06/16/463df3561b1b419d36fd7dc7e9a21ac4.jpg Скачать фильм Люди через торрент бесплантно в хорошем качестве Описание: Действие сериала развернется в параллельном мире, где чрезвычайную популярность приобрели новые гаджеты - высокотехнологичные ... 9.4 10 11
    Info! Золотая раздача, скачанное не засчитывается.
    Торрент: Зарегистрирован [2015-08-07 01:14] · скачан: 120 раз
    Статус: √ проверено
    Размер: 12.22 GB
    Как cкачать? Как скачать Люди через торрент | qTorrent

    % Раздел Тема Автор DL S | L
    Зарубежные сериалы [ 6.08 GB ] Люди / Humans / Сезон: 3 / Серии: 1-8 из 8 [2018 HDTVRip 720p] MVO [Jaskier] bober100 Скачать
    1 | 0
    Зарубежные сериалы [ 4.41 GB ] Люди / Humans / Сезон: 3 / Серии: 1-8 из 8 [2018 HDTVRip] MVO [Jaskier] bober100 Скачать
    1 | 0
    Зарубежные сериалы [ 24.42 GB ] Люди / Humans / Сезон: 3 / Серии: 1-8 из 8 [2018 HDTV 1080p] MVO [Lostfilm] bober100 Скачать
    1 | 0
    Зарубежные сериалы [ 10.8 GB ] Люди / Humans / Сезон: 3 / Серии: 1-8 из 8 [2018 HDTVRip 720p] MVO [Profix Media] bober100 Скачать
    1 | 0
    Зарубежные сериалы [ 4.7 GB ] Люди / Humans / Сезон: 3 / Серии: 1-8 из 8 [2018 HDTVRip] MVO [Lostfilm] bober100 Скачать
    1 | 0
    Зарубежные сериалы [ 16.23 GB ] Люди / Humans / Сезон: 3 / Серии: 1-8 из 8 [2018 HDTVRip 1080p] MVO [Profix Media] bober100 Скачать
    1 | 0
    Зарубежные сериалы [ 3.71 GB ] Люди / Humans / Сезон: 3 / Серии: 1-8 из 8 [2018 HDTVRip] MVO [Profix Media] bober100 Скачать
    1 | 0


    Последний раз редактировалось: GEKADOL (2015-08-07 01:15), всего редактировалось 8 раз(а)

    28-11-2019 20:33  

    Отключить всю рекламу на сайте

    01-07-2015 19:21 Люди Скачать торрент  

    Любителям фантастики и робототехники,рекомендую .pb.wtf



    28-12-2015 13:58 Люди Скачать торрент  

    Будет второй сезон?pb.wtf



      Дорогой пользователь! Огромная просьба, поблагодарите релизера, оцените раздачу и оставьте свои комментарий, если Вы скачали Люди через торрент бесплатно! Внесите свою лепту в развитие PiratBit!
      Комментировать посты могут только пользователи прошедшие не сложную регистрацию
      Показать сообщения:    

      Люди через торрент
      Скачать бесплатно Люди
      Люди скачать торрент
      Люди смотреть онлайн
      Cкачать фильм Люди бесплатно
      Люди скачать торрент в хорошем качестве
      Люди смотреть онлайн бесплатно в хорошем качестве


      Вы не можете начинать темы
      Вы не можете отвечать на сообщения
      Вы не можете редактировать свои сообщения
      Вы не можете удалять свои сообщения
      Вы не можете голосовать в опросах
      Вы не можете прикреплять файлы к сообщениям
      Вы можете скачивать файлы