Мега распродажа FORZA HORIZON 4 ULTIMATE+ВСЕ DLC+ОНЛАЙН всего за 499р. 349 руб. (супер цена). Внимание количество ограничено!!!

iTunes

1+1

iTunes

мы

iTunes

1

1 сезон

Чернобыль

1 сезон

Ральф против интернета

Лицензия

ПШазам

8 сезон

Игра престолов

Лицензия

30
pack

ВАЖНО

!!Акция!!

Alien_RageХит недели

RePack

Resident Evil 21

ИГРА 18+

pack

RePack

Metro:Exodus

!!Акция!!

Alien_Rage

RePack

fifa19

RePack

Assassins Creed: Odyssey

RePack

NEED FOR SPEED™ PAYBACK

3 сезон

9 сезон

Бесстыжие 9 сезон

Все сериалы

все сериалы на PB.wtf

RePack

FAR CRY 5
Ребята, катастрофически не хватает 2730р. для оплаты серверов за ИЮНЬ (всвязи с блокировками трафик упал в 3 раза), 1-2р., выручайте.
  

Ходячие мертвецы / The Walking Dead / Сезон: 6 / Серии 1-3 из 16 (Эрнест Р. Дикерсон, Билл Джирхарт, Гай Ферленд) [2015, ужасы, триллер, драма, приключения, WEB-DL 1080p] MVO - LostFilm, FOX, Sub + Original pb.wtf

Ходячие мертвецы через торрент pb.wtf

Размер: 6.46 GB | Добавлен: 3 года 8 мес. назад | Торрент скачан:92 раза
Скачать  

25-10-2015 08:50 Ходячие мертвецы Скачать торрент  


Ходячие мертвецы / 6 сезон


Год выпуска: 2015
Страна: США
Жанр: ужасы, триллер, драма, приключения
Продолжительность: 1 ~ 00:43:00
Перевод: Профессиональный (многоголосый закадровый) LostFilm
Перевод: Профессиональный (многоголосый закадровый) FOX
Субтитры: Русские (N-Team), английские
Сезон: 6
Серии: 1-3 из 16
Режиссер: Эрнест Р. Дикерсон, Билл Джирхарт, Гай Ферленд
В ролях: Эндрю Линкольн, Сара Уэйн Кэллис, Лори Холден, Стивен Юн, Чендлер Риггз, Норман Ридус, Айрон Э. Синглтон, Мелисса Сюзанн МакБрайд, Лорен Коэн, Джон Бернтал и др.
Описание:
Сериал рассказывает историю жизни семьи шерифа после того, как «зомби» — эпидемия апокалиптических масштабов захлестнула земной шар. Шериф Рик Граймс путешествует со своей семьей и небольшой группой выживших в поисках безопасного места для жизни. Но постоянный страх смерти каждый день приносит тяжелые потери, заставляя героев почувствовать глубины человеческой жестокости.
Список серий:
01: Снова как в первый раз (First Time Again)
02: Выживи любой ценой (JSS)
03: Спасибо (Thank You)
Качество: WEB-DL 1080p
Формат: MKV
Видео: AVC, 1916x1076 (16:9), 5029 kbps, 23,976 fps, 0,102 bpp
Аудио №1: русский / AC3 / 2.0 / 48 kHz / 384 kbps / 16 bit || LostFilm
Аудио №2: русский / AC3 / 2.0 / 48 kHz / 192 kbps / 16 bit || FOX
Аудио №3: английский / AC3 / 5.1 / 48 kHz / 384 kbps / 16 bit || Original
Автор релиза: qqss44

Код:

Общее
Уникальный идентификатор                 : 242114233949230159789226280065651158781 (0xB625815C294B409A80B4DF2C6F77AEFD)
Полное имя                               : E:\Торрент\TWD (Season 06) 1080\The.Walking.Dead.s06e01.WEBDL.1080p.[qqss44].mkv
Формат                                   : Matroska
Версия формата                           : Version 2
Размер файла                             : 2,76 Гбайт
Продолжительность                        : 1 ч. 4 м.
Общий поток                              : 6112 Кбит/сек
Дата кодирования                         : UTC 2015-10-13 21:10:02
Программа кодирования                    : mkvmerge v7.9.0 ('Birds') 64bit
Библиотека кодирования                   : libebml v1.3.1 + libmatroska v1.4.2
Attachements                             : small_cover.jpg / cover.jpg / cover_land.jpg / small_cover_land.jpg
DURATION                                 : 01:03:51.761000000
NUMBER_OF_FRAMES                         : 697
NUMBER_OF_BYTES                          : 20575
_STATISTICS_WRITING_APP                  : mkvmerge v7.9.0 ('Birds') 64bit
_STATISTICS_WRITING_DATE_UTC             : 2015-10-13 21:10:02
_STATISTICS_TAGS                         : BPS DURATION NUMBER_OF_FRAMES NUMBER_OF_BYTES

Видео
Идентификатор                            : 1
Формат                                   : AVC
Формат/Информация                        : Advanced Video Codec
Профиль формата                          : High@L4.0
Параметр CABAC формата                   : Да
Параметр ReFrames формата                : 4 кадра
Идентификатор кодека                     : V_MPEG4/ISO/AVC
Продолжительность                        : 1 ч. 4 м.
Битрейт                                  : 5030 Кбит/сек
Ширина                                   : 1916 пикселей
Высота                                   : 1076 пикселей
Соотношение сторон                       : 16:9
Режим частоты кадров                     : Постоянный
Частота кадров                           : 23,976 кадра/сек
Цветовое пространство                    : YUV
Субдискретизация насыщенности            : 4:2:0
Битовая глубина                          : 8 бит
Тип развёртки                            : Прогрессивная
Бит/(Пиксели*Кадры)                      : 0.102
Размер потока                            : 2,27 Гбайт (82%)
Язык                                     : English
Default                                  : Да
Forced                                   : Нет
Основные цвета                           : BT.709
Характеристики трансфера                 : BT.709
Коэффициенты матрицы                     : BT.709
colour_range                             : Limited

Аудио #1
Идентификатор                            : 2
Формат                                   : AC-3
Формат/Информация                        : Audio Coding 3
Расширение режима                        : CM (complete main)
Параметр Endianness формата              : Big
Идентификатор кодека                     : A_AC3
Продолжительность                        : 1 ч. 4 м.
Вид битрейта                             : Постоянный
Битрейт                                  : 384 Кбит/сек
Каналы                                   : 2 канала
Расположение каналов                     : Front: L R
Частота                                  : 48,0 КГц
Битовая глубина                          : 16 бит
Метод сжатия                             : С потерями
Размер потока                            : 178 Мбайт (6%)
Заголовок                                : LostFilm
Язык                                     : Russian
Default                                  : Да
Forced                                   : Нет

Аудио #2
Идентификатор                            : 3
Формат                                   : AC-3
Формат/Информация                        : Audio Coding 3
Расширение режима                        : CM (complete main)
Параметр Endianness формата              : Big
Идентификатор кодека                     : A_AC3
Продолжительность                        : 1 ч. 4 м.
Вид битрейта                             : Постоянный
Битрейт                                  : 192 Кбит/сек
Каналы                                   : 2 канала
Расположение каналов                     : Front: L R
Частота                                  : 48,0 КГц
Битовая глубина                          : 16 бит
Метод сжатия                             : С потерями
Размер потока                            : 88,9 Мбайт (3%)
Заголовок                                : FOX
Язык                                     : Russian
Default                                  : Нет
Forced                                   : Нет

Аудио #3
Идентификатор                            : 4
Формат                                   : AC-3
Формат/Информация                        : Audio Coding 3
Расширение режима                        : CM (complete main)
Параметр Endianness формата              : Big
Идентификатор кодека                     : A_AC3
Продолжительность                        : 1 ч. 4 м.
Вид битрейта                             : Постоянный
Битрейт                                  : 384 Кбит/сек
Каналы                                   : 6 каналов
Расположение каналов                     : Front: L C R, Side: L R, LFE
Частота                                  : 48,0 КГц
Битовая глубина                          : 16 бит
Метод сжатия                             : С потерями
Размер потока                            : 178 Мбайт (6%)
Язык                                     : English
Default                                  : Нет
Forced                                   : Нет

Текст #1
Идентификатор                            : 5
Формат                                   : UTF-8
Идентификатор кодека                     : S_TEXT/UTF8
Идентификатор кодека/Информация          : UTF-8 Plain Text
Язык                                     : Russian
Default                                  : Нет
Forced                                   : Нет

Текст #2
Идентификатор                            : 6
Формат                                   : UTF-8
Идентификатор кодека                     : S_TEXT/UTF8
Идентификатор кодека/Информация          : UTF-8 Plain Text
Язык                                     : English
Default                                  : Нет
Forced                                   : Нет

Код:

Внимание! Раздача ведётся путём добавления новых серий; при каждом добавлении создаётся новый торрент. Чтобы начать докачку новой серии, пользователям необходимо сделать следующее:
(1) остановить скачивание,
(2) удалить старый торрент у себя из клиента (старые серии удалять не надо),
(3) скачать новый торрент и запустить его у себя в клиенте вместо старого, при этом указать клиенту путь в старую папку куда и должно происходить скачивание новых серий.
Ваш клиент при этом должен произвести хеширование (проверку) старой папки (если не производит сам - помогите ему сделать это), и будет докачивать только те серии которых у вас ещё нет. Старые серии при этом не удаляются, а продолжают раздаваться!
Eсли вы уже удалили старые серии, то предотвратить повторную закачку старых серий можно, отжав галочку в соответсвующих местах при запуске нового торрента. По возможности, желательно не удалять старые серии как можно дольше чтобы релизёр не столько продолжал раздавать старые серии, а смог сконцентрироваться на новых.




Добавлена 3 Серия. Просьба перехешировать торрент-файл.pb.wtf



Скачать Ходячие мертвецы через торрент http://i1.imageban.ru/out/2015/10/25/5c4d512ceb01fac5605d2b236f2e0abb.jpg Скачать фильм Ходячие мертвецы через торрент бесплантно в хорошем качестве Описание: Сериал рассказывает историю жизни семьи шерифа после того, как «зомби» — эпидемия апокалиптических масштабов захлестнула земной ... 9.5 10 20
Торрент: Зарегистрирован [2015-10-28 15:39] · скачан: 92 раз
Статус: √ проверено
Размер: 6.46 GB
Как cкачать? Как скачать Ходячие мертвецы через торрент | qTorrent


>> Регистрируемся здесь <<






Отзывы и комментарии о схеме читаем и пишем здесь: ---> Отзывы и комментарии о схеме

Новые благодарочки в телеграм довольных пользователей:
скриншот   скриншот   скриншот   скриншот   скриншот

28-10-2015 17:13 Ходячие мертвецы Скачать торрент  

я в шоке-рьяно
начали сезон-отправил телеграмму в голливуд-зачем ускоглазово сьели-наверное мало ему платили-поэтому ушел из сериала-ведь классный паренек был-ели бы уж всяких новых-их не жалко-они бы еще чувака с арбалетом сьели-я бы точно в голливуд поехал разбираться чо за фигня
pb.wtf
!Ворон писал(а):

https://pb.wtf/topic/27/
5.7. Сюжетные моменты, в любых проектах(кино,игры и т.д.), а также местоположение персонажей, предметов и т.д. (игры) разрешается раскрывать только в спойлере, соответственно подписанном. На первый раз выдается предупреждение на 1 месяц, на 2-й раз - бессрочное предупреждение на 3-й раз деактивация аккаунта без возможности восстановить. Уважайте тех кто планирует смотреть, играть и еще решает читая Ваши отзывы в темах.



28-10-2015 17:30 Ходячие мертвецы Скачать торрент  

sasha1966, Вот скажи ты ж судя по комментарием не глупый человек. Нахрена ты спойлер запилил в теме и еще очень серьезный??? Если и выдаешь такое то НАДО ПРЯТАТЬ ПОД СПОЙЛЕРpb.wtf
!Ворон писал(а):

Устный пока, но на будущее учти сразу бан на месяц. От меня так точно.



28-10-2015 18:10 Ходячие мертвецы Скачать торрент  

виноват-с дуру ляпнул на эмоциях-не подумавши-старенький я -недавно научили пользоваться компьютером-теперь то понял что накосячил-и только сейчас доходит-что такое спойлерpb.wtf



    Дорогой пользователь! Огромная просьба, поблагодарите релизера, оцените раздачу и оставьте свои комментарий, если Вы скачали Ходячие мертвецы через торрент бесплатно! Внесите свою лепту в развитие PiratBit!
    Комментировать посты могут только пользователи прошедшие не сложную регистрацию
    Показать сообщения:    

    Ходячие мертвецы через торрент
    Скачать бесплатно Ходячие мертвецы
    Ходячие мертвецы скачать торрент
    Ходячие мертвецы смотреть онлайн
    Cкачать фильм Ходячие мертвецы бесплатно
    Ходячие мертвецы скачать торрент в хорошем качестве
    Ходячие мертвецы смотреть онлайн бесплатно в хорошем качестве


    Вы не можете начинать темы
    Вы не можете отвечать на сообщения
    Вы не можете редактировать свои сообщения
    Вы не можете удалять свои сообщения
    Вы не можете голосовать в опросах
    Вы не можете прикреплять файлы к сообщениям
    Вы можете скачивать файлы