Ссылка на приватное зеркало нашего сайта всего за 1$. Внимание количество ограничено!!!

2 сезон

iTunes

1 сезон

1

2 сезон

2 сезон

iTunes

1 сезон

RePack

30

Ultimate

ВАЖНО

ИГРА 18+

pack

RePack

MK11
pack

Забери бонус

RePack

jed

!!Акция!!

Alien_Rage

RePack

fifa19

RePack

Assassins Creed: Odyssey

RePack

NEED FOR SPEED™ PAYBACK

4 сезон

9 сезон

Бесстыжие 9 сезон

Все сериалы

все сериалы на PB.wtf

RePack

FAR CRY 5
  

В пустыне смерти / Into the Badlands / Сезон: 1 / Серии: 1-6 из 6 (Дэвид Добкин) [2015, Боевик, драма, приключения, экранизация, WEB-DLRip] MVO (NewStudio) + Original pb.wtf

В пустыне смерти через торрент pb.wtf

Размер: 3.22 GB | Добавлен: 4 года 11 мес. назад | Торрент скачан:315 раз
Скачать  

02-12-2015 18:58 В пустыне смерти Скачать торрент  






В пустыне смерти | Into the Badlands




• Год выпуска: 2015
• Страна: США
• Жанр: Боевик, драма, приключения, экранизация
• Продолжительность: серия ~ 00:43:00




• Перевод: Профессиональный (многоголосый закадровый) | NewStudio




• Режиссёр: Дэвид Добкин




• В ролях: Эмили Бичем, Сара Болгер, Орла Брэйди, Мартон Чокаш, Элли Иоаннидес, Арамис Найт, Мадлен Манток, Майкл Сил, Оливер Старк, Дэниэл Ву и др.




• Описание: Бредет по пустые великий воин по имени Санни, несущий только смерть своим врагам, он ведет маленького мальчика во время духовного странствия по брошенным и таящим опасность землям, управляемым могущественными феодальными баронами. В далеком будущем вследствие природных и техногенных катастроф образуется новое общество, в котором правят только деньги и Влacть. Территория в мире Into the Badlands поделена между 7-ю враждующими баронами, которые контролируют все жизненно важные ресурсы. Их Влacть опирается на преданное войско, состоящее из специально обученных ассасинов. Воины пользуются всеми благами своего положения, о которых простым людям можно только мечтать, и готовы пожертвовать жизнью на службе у своего барона. Редкий ассасин доживает до 30 лет. Но Санни, нельзя назвать обычным воином. Совершенное владение боевыми искусствами позволило Санни стремительно подняться по карьерной лестнице, дослужиться до звания главного ассасина и стать доверенным советником при бароне Куинне. На протяжении многих десятилетий Куинн остается самым могущественным лидером на этих землях, однако молодая баронесса Вдова начала вероломно нападать на караваны Куинна, явно желая вызвать его на поединок. Во время одного из таких нападений Санни знакомится с подростком по имени M.K., который чудом выжил во время смертельной схватки. Санни быстро понял, что мальчик скрывает страшный секрет, и за его голову обещана большая награда. Последующие вылазки Вдовы против Куинна сплачивают героев, и отныне судьбы мужественного ассасина и упрямого подростка переплетаются. Как учитель и ученик, герои проходят путь поиска себя и обретают истинную цель жизни. Вместе они отправляются в путешествие, которое сможет изменить баланс сил и привести к победе просвещения над хаосом на землях постапокалипсиса.









• Качество: WEB-DLRip
• Формат: AVI
• Видео: XviD, 720x400 (16:9), 23,976 fps, ~1500 kbps
• Аудио #1: MP3, 48 kHz, 2 ch, 128 kbps, CBR - Rus
• Аудио #2: MP3, 48 kHz, 2 ch, 128 kbps, CBR - Eng
• Субтитры: отсутствуют





релиз от NewStudio
Перевод: Григорий Сенин

Код:

Общее
Полное имя                               : X:\ATorrent\Into the Badlands (Season 01) NewStudio\Into.the.Badlands.s01e01.WEBDLRip.NewStudio.avi
Формат                                   : AVI
Формат/Информация                        : Audio Video Interleave
Размер файла                             : 544 Мбайт
Продолжительность                        : 44 м.
Общий поток                              : 1729 Кбит/сек
Программа кодирования                    : VirtualDubMod 1.5.10.3 | www.virtualdub-fr.org || (build 2550/release)
Библиотека кодирования                   : VirtualDubMod build 2550/release
Видео
Идентификатор                            : 0
Формат                                   : MPEG-4 Visual
Профиль формата                          : Advanced Simple@L5
Параметр BVOP формата                    : 2
Параметр QPel формата                    : Нет
Параметр GMC формата                     : Без точки перехода
Параметр матрицы формата                 : Default (MPEG)
Идентификатор кодека                     : XVID
Идентификатор кодека/Подсказка           : XviD
Продолжительность                        : 44 м.
Битрейт                                  : 1459 Кбит/сек
Ширина                                   : 720 пикселей
Высота                                   : 400 пикселей
Соотношение сторон                       : 16:9
Частота кадров                           : 23,976 кадра/сек
Цветовое пространство                    : YUV
Субдискретизация насыщенности            : 4:2:0
Битовая глубина                          : 8 бит
Тип развёртки                            : Прогрессивная
Метод сжатия                             : С потерями
Бит/(Пиксели*Кадры)                      : 0.211
Размер потока                            : 459 Мбайт (84%)
Библиотека кодирования                   : XviD 73
Аудио #1
Идентификатор                            : 1
Формат                                   : MPEG Audio
Версия формата                           : Version 1
Профиль формата                          : Layer 3
Режим                                    : Joint stereo
Расширение режима                        : MS Stereo
Идентификатор кодека                     : 55
Идентификатор кодека/Подсказка           : MP3
Продолжительность                        : 44 м.
Вид битрейта                             : Постоянный
Битрейт                                  : 128 Кбит/сек
Каналы                                   : 2 канала
Частота                                  : 48,0 КГц
Метод сжатия                             : С потерями
Размер потока                            : 40,3 Мбайт (7%)
Выравнивание                             : Соединение по промежуткам
Продолжительность промежутка             : 42  мс. (1,00 видеокадр)
Время предзагрузки промежутка            : 504  мс.
Аудио #2
Идентификатор                            : 2
Формат                                   : MPEG Audio
Версия формата                           : Version 1
Профиль формата                          : Layer 3
Режим                                    : Joint stereo
Расширение режима                        : MS Stereo
Идентификатор кодека                     : 55
Идентификатор кодека/Подсказка           : MP3
Продолжительность                        : 44 м.
Вид битрейта                             : Постоянный
Битрейт                                  : 128 Кбит/сек
Каналы                                   : 2 канала
Частота                                  : 48,0 КГц
Метод сжатия                             : С потерями
Размер потока                            : 40,3 Мбайт (7%)
Выравнивание                             : Соединение по промежуткам
Продолжительность промежутка             : 42  мс. (1,00 видеокадр)
Время предзагрузки промежутка            : 504  мс.
Библиотека кодирования                   : LAME3.99.5



pb.wtf



Скачать В пустыне смерти через торрент http://flashis.ru/images/2015/11/17/35.jpg Скачать фильм В пустыне смерти через торрент бесплантно в хорошем качестве Описание: Бредет по пустые великий воин по имени Санни, несущий только смерть своим врагам, он ведет маленького мальчика во время духовного ... 9.8 10 21
Info! Золотая раздача, скачанное не засчитывается.
Торрент: Зарегистрирован [2015-12-22 19:34] · скачан: 315 раз
Статус: √ проверено
Размер: 3.22 GB
Как cкачать? Как скачать В пустыне смерти через торрент | qTorrent



Последний раз редактировалось: P.N.L. (2015-12-22 19:34), всего редактировалось 4 раз(а)

28-11-2019 20:33  

Отключить всю рекламу на сайте

02-12-2015 19:17 В пустыне смерти Скачать торрент  

Крутой сериал.жду перевода amcpb.wtf



02-12-2015 21:54 В пустыне смерти Скачать торрент  

ну 720 еше можно качать а это то зачем выкладывать так для ознакомления в виде трелераpb.wtf



08-12-2015 16:55 В пустыне смерти Скачать торрент  

Добавлена 4 серияpb.wtf



15-12-2015 17:00 В пустыне смерти Скачать торрент  

Добавлена 5 серияpb.wtf



19-12-2015 13:45 В пустыне смерти Скачать торрент  

Спасибо! pb.wtf





Последний раз редактировалось: ˜”°•...•°”˜ (2015-12-22 21:56), всего редактировалось 1 раз

22-12-2015 19:35 В пустыне смерти Скачать торрент  

Добавлена 6 серия. Финал сезона.pb.wtf



26-12-2015 22:05 В пустыне смерти Скачать торрент  

Сериал норм.pb.wtf



    Дорогой пользователь! Огромная просьба, поблагодарите релизера, оцените раздачу и оставьте свои комментарий, если Вы скачали В пустыне смерти через торрент бесплатно! Внесите свою лепту в развитие PiratBit!
    Комментировать посты могут только пользователи прошедшие не сложную регистрацию
    Показать сообщения:    

    В пустыне смерти через торрент
    Скачать бесплатно В пустыне смерти
    В пустыне смерти скачать торрент
    В пустыне смерти смотреть онлайн
    Cкачать фильм В пустыне смерти бесплатно
    В пустыне смерти скачать торрент в хорошем качестве
    В пустыне смерти смотреть онлайн бесплатно в хорошем качестве


    Вы не можете начинать темы
    Вы не можете отвечать на сообщения
    Вы не можете редактировать свои сообщения
    Вы не можете удалять свои сообщения
    Вы не можете голосовать в опросах
    Вы не можете прикреплять файлы к сообщениям
    Вы можете скачивать файлы