Ссылка на приватное зеркало нашего сайта всего за 1$. Внимание количество ограничено!!!

2 сезон

iTunes

1 сезон

1

2 сезон

2 сезон

iTunes

1 сезон

RePack

30

Ultimate

ВАЖНО

ИГРА 18+

pack

RePack

MK11
pack

Забери бонус

RePack

jed

!!Акция!!

Alien_Rage

RePack

fifa19

RePack

Assassins Creed: Odyssey

RePack

NEED FOR SPEED™ PAYBACK

4 сезон

9 сезон

Бесстыжие 9 сезон

Все сериалы

все сериалы на PB.wtf

RePack

FAR CRY 5
  

В пустыне смерти / Into the Badlands / Сезон: 1 / Серии: 1-6 из 6 (Дэвид Добкин) [2015 г., Боевик, драма, приключения, экранизация, WEB-DL 720p] MVO AMC pb.wtf

В пустыне смерти через торрент pb.wtf

Размер: 7.94 GB | Добавлен: 4 года 11 мес. назад | Торрент скачан:135 раз
Скачать  

22-12-2015 17:04 В пустыне смерти Скачать торрент  

В пустыне смерти / Into the Badlands
Год выпуска: 2015
Страна: США
Жанр: Боевик, драма, приключения, экранизация
Продолжительность cерии: ~00:43:00.

  • Перевод: Профессиональный (многоголосый закадровый) AMC ;
  • Русские субтитры: нет
  • Оригинальная аудиодорожка: английская

Режиссер: Дэвид Добкин
В ролях: Эмили Бичем, Сара Болгер, Орла Брэйди, Мартон Чокаш, Элли Иоаннидес, Арамис Найт, Мадлен Манток, Майкл Сил, Оливер Старк, Дэниэл Ву и др.
Описание: Приключенческий боевик о двух друзьях. В пустыне смерти, какие испытания предстоит пройти главным героям на пути просвещения. Ради обретения высшей мудрости мастер боевых искусств Санни и его юный напарник решают пройти через неизведанные земли. Они знают, что там их будут встречать враждебно, но ради высшей цели главные герои готовы вынести всё. В основу сюжета сериала был положен китайский роман под названием «Путешествие на Запад». Во время путешествия Санни покажет в полной мере своё мастерство, а его юный друг сможет многому научиться, и владению собственным телом, и контролю над собственным духом.

  • Тип релиза: WEB-DL 720p
  • Формат: MKV
  • Видео кодек: x.264 | Аудио кодек: AC3
  • Видео: 1280x718, 23.976 fps, ~3800 Kbps
  • Аудио 1: Russian: 48 kHz, AC3, 2 ch, ~192 kbps avg
  • Аудио 2: English: 48 kHz, AC3, 6 ch, ~192 kbps avg
  • Субтитры: English


Код:

Общее
Уникальный идентификатор                 : 219629387864848743381512017439352427425 (0xA53B14DB965416279F235BE4499C13A1)
Полное имя                               : C:\торрент\тор\Into.the.Badlands.S01.WEB-DL 720p.AMC\Into.the.Badlands.S01E01.720p.WEB-DL.AMC.mkv
Формат                                   : Matroska
Версия формата                           : Version 4 / Version 2
Размер файла                             : 1,31 Гбайт
Продолжительность                        : 44 м.
Общий поток                              : 4269 Кбит/сек
Дата кодирования                         : UTC 2015-12-07 22:36:04
Программа кодирования                    : mkvmerge v7.3.0 ('Nouages') 32bit built on Oct 22 2014 18:44:01
Библиотека кодирования                   : libebml v1.3.0 + libmatroska v1.4.1
Attachements                             : small_cover.jpg / cover.jpg / cover_land.jpg / small_cover_land.jpg
DURATION                                 : 00:44:00.416000000
NUMBER_OF_FRAMES                         : 82513
NUMBER_OF_BYTES                          : 63369984
_STATISTICS_WRITING_APP                  : mkvmerge v7.3.0 ('Nouages') 32bit built on Oct 22 2014 18:44:01
_STATISTICS_WRITING_DATE_UTC             : 2015-12-07 22:36:04
_STATISTICS_TAGS                         : BPS DURATION NUMBER_OF_FRAMES NUMBER_OF_BYTES

Видео
Идентификатор                            : 1
Формат                                   : AVC
Формат/Информация                        : Advanced Video Codec
Профиль формата                          : High@L3.1
Параметр CABAC формата                   : Нет
Параметр ReFrames формата                : 2 кадра
Идентификатор кодека                     : V_MPEG4/ISO/AVC
Продолжительность                        : 44 м.
Битрейт                                  : 3800 Кбит/сек
Ширина                                   : 1280 пикселей
Высота                                   : 718 пикселей
Соотношение сторон                       : 16:9
Режим частоты кадров                     : Постоянный
Частота кадров                           : 23,976 кадра/сек
Цветовое пространство                    : YUV
Субдискретизация насыщенности            : 4:2:0
Битовая глубина                          : 8 бит
Тип развёртки                            : Прогрессивная
Бит/(Пиксели*Кадры)                      : 0.172
Размер потока                            : 1,17 Гбайт (89%)
Язык                                     : English
Default                                  : Да
Forced                                   : Нет
Цветовой диапазон                        : Limited
Основные цвета                           : BT.709
Характеристики трансфера                 : BT.709
Коэффициенты матрицы                     : BT.709

Аудио #1
Идентификатор                            : 3
Формат                                   : AC-3
Формат/Информация                        : Audio Coding 3
Расширение режима                        : CM (complete main)
Параметр Endianness формата              : Big
Идентификатор кодека                     : A_AC3
Продолжительность                        : 44 м.
Вид битрейта                             : Постоянный
Битрейт                                  : 192 Кбит/сек
Каналы                                   : 2 канала
Расположение каналов                     : Front: L R
Частота                                  : 48,0 КГц
Метод сжатия                             : С потерями
Размер потока                            : 60,4 Мбайт (4%)
Язык                                     : Russian
Default                                  : Да
Forced                                   : Нет

Аудио #2
Идентификатор                            : 4
Формат                                   : AC-3
Формат/Информация                        : Audio Coding 3
Расширение режима                        : CM (complete main)
Параметр Endianness формата              : Big
Идентификатор кодека                     : A_AC3
Продолжительность                        : 44 м.
Вид битрейта                             : Постоянный
Битрейт                                  : 192 Кбит/сек
Каналы                                   : 6 каналов
Расположение каналов                     : Front: L C R, Side: L R, LFE
Частота                                  : 48,0 КГц
Метод сжатия                             : С потерями
Размер потока                            : 60,4 Мбайт (4%)
Язык                                     : English
Default                                  : Нет
Forced                                   : Нет

Текст
Идентификатор                            : 2
Формат                                   : UTF-8
Идентификатор кодека                     : S_TEXT/UTF8
Идентификатор кодека/Информация          : UTF-8 Plain Text
Язык                                     : English
Default                                  : Нет
Forced                                   : Нет

pb.wtf



Скачать В пустыне смерти через торрент http://pic1.kartinco.top/images/10/7v1ai.jpg Скачать фильм В пустыне смерти через торрент бесплантно в хорошем качестве Описание: Приключенческий боевик о двух друзьях. В пустыне смерти, какие испытания предстоит пройти главным героям на пути просвещения. ... 10 10 15
Info! Золотая раздача, скачанное не засчитывается.
Торрент: Зарегистрирован [2015-12-22 17:04] · скачан: 135 раз
Статус: √ проверено
Размер: 7.94 GB
Как cкачать? Как скачать В пустыне смерти через торрент | qTorrent

% Раздел Тема Автор DL S | L
Фильмы с украинским озвучиванием [ 10.14 GB ] В пустыне смерти / Into the Badlands / Сезон: 1 / Серии: 1-6 из 6 [2015 WEB-DL 1080p] [Ukr MVO] killermax2013 Скачать
1 | 0

28-11-2019 20:33  

Отключить всю рекламу на сайте

26-12-2015 22:06 В пустыне смерти Скачать торрент  

2-ой сезон в 2016.pb.wtf



03-01-2016 19:01 В пустыне смерти Скачать торрент  

Сериал очень понравился жаль что серий мало.буду ждать 2 сезон.спасибо!pb.wtf



05-01-2016 18:39 В пустыне смерти Скачать торрент  

Ждём второй сезон, Сериал отличный !!! советую всем ! кстати примерный месяц выхода не известен ?pb.wtf



29-06-2018 13:59 В пустыне смерти Скачать торрент  

.pb.wtf



    Дорогой пользователь! Огромная просьба, поблагодарите релизера, оцените раздачу и оставьте свои комментарий, если Вы скачали В пустыне смерти через торрент бесплатно! Внесите свою лепту в развитие PiratBit!
    Комментировать посты могут только пользователи прошедшие не сложную регистрацию
    Показать сообщения:    

    В пустыне смерти через торрент
    Скачать бесплатно В пустыне смерти
    В пустыне смерти скачать торрент
    В пустыне смерти смотреть онлайн
    Cкачать фильм В пустыне смерти бесплатно
    В пустыне смерти скачать торрент в хорошем качестве
    В пустыне смерти смотреть онлайн бесплатно в хорошем качестве


    Вы не можете начинать темы
    Вы не можете отвечать на сообщения
    Вы не можете редактировать свои сообщения
    Вы не можете удалять свои сообщения
    Вы не можете голосовать в опросах
    Вы не можете прикреплять файлы к сообщениям
    Вы можете скачивать файлы