Ссылка на приватное зеркало нашего сайта всего за 1$. Внимание количество ограничено!!!

2 сезон

iTunes

1 сезон

1

2 сезон

2 сезон

iTunes

1 сезон

RePack

30

Ultimate

ВАЖНО

ИГРА 18+

pack

RePack

MK11
pack

Забери бонус

RePack

jed

!!Акция!!

Alien_Rage

RePack

fifa19

RePack

Assassins Creed: Odyssey

RePack

NEED FOR SPEED™ PAYBACK

4 сезон

9 сезон

Бесстыжие 9 сезон

Все сериалы

все сериалы на PB.wtf

RePack

FAR CRY 5
  

Хэп и Леонард / Hap and Leonard / сезон 1 / серии 1-6 из 6 (Ник Гомез, Джим Микл) [2016 г.,США, триллер, драма, криминал, WEB-DLRip] MVO NewStudio pb.wtf

Хэп и Леонард через торрент pb.wtf

Размер: 3.16 GB | Добавлен: 4 года 2 мес. назад | Торрент скачан:100 раз
Скачать  

31-08-2016 09:01 Хэп и Леонард Скачать торрент  

Хэп и Леонард / Hap and Leonard
Год выпуска: 2016
Страна: США
Жанр: триллер, драма, криминал
Продолжительность: ~ 00:44:00
Перевод: Профессиональный (многоголосый) NewStudio

Режиссер: Ник Гомез, Джим Микл
Продюссер: Джо Р. Лэнсдэйл, Линда Моран, Lowell Northrop
Сценарий: Ник Дамичи, Джим Микл, Джо Р. Лэнсдэйл

Премьера в мире: 2 марта 2016

В ролях: В ролях: Джеймс Пьюрфой, Майкл Кеннет Уильямс, Поллианна МакИнтош, Нил Сэндилэндс, Trace Masters, Джефф Поуп, Рон Рогге, Каден Вашингтон Льюис, Уилльям Шафф, Джон Тил мл.

Описание: Сериал расскажет о необычной дружбе двух неудачников — Хэпа Коллинза и Леонарда Пайна. Хэп — белый работяга, который провел свою юность в тюрьме за то, что отказался воевать во Вьетнаме. Пайн — чернокожий открытый гей, ветеран Вьетнама, от которого отвернулась родня из-за его ориентации и проблем с управлением гневом.

Качество: WEB-DLRip
Формат: AVI
Видео кодек: XviD
Аудио кодек: MP3
Видео: XviD, ~ 1452 Кбит/сек, 720x400, 23,976 fps
Аудио#1: Русский,(MP3, 2 ch, ~ 128 Кбит/с ,48,0 КГц)
Аудио#2: английский,(MP3, 2 ch, ~ 128 Кбит/с, 48,0 КГц)
скриншот  скриншот  скриншот  





Общее
Полное имя : C:\Users\HanoWARo\Downloads\Hap.and.Leonard (Season 01) NewStudio\Hap.and.Leonard.S01E01.WEBDLRip.NewStudio.avi
Формат : AVI
Формат/Информация : Audio Video Interleave
Размер файла : 542 Мбайт
Продолжительность : 44 м. 1 с.
Общий поток : 1722 Кбит/сек
Программа кодирования : VirtualDubMod 1.5.10.3 | www.virtualdub-fr.org || (build 2550/release)
Библиотека кодирования : VirtualDubMod build 2550/release

Видео
Идентификатор : 0
Формат : MPEG-4 Visual
Профиль формата : Advanced Simple@L5
Параметр BVOP формата : 2
Параметр QPel формата : Нет
Параметр GMC формата : Без точки перехода
Параметр матрицы формата : Default (MPEG)
Идентификатор кодека : XVID
Идентификатор кодека/Подсказка : XviD
Продолжительность : 44 м. 1 с.
Битрейт : 1452 Кбит/сек
Ширина : 720 пикселей
Высота : 400 пикселей
Соотношение сторон : 16:9
Частота кадров : 23,976 (23976/1000) кадра/сек
Цветовое пространство : YUV
Субдискретизация насыщенности : 4:2:0
Битовая глубина : 8 бит
Тип развёртки : Прогрессивная
Метод сжатия : С потерями
Бит/(Пиксели*Кадры) : 0.210
Размер потока : 457 Мбайт (84%)
Библиотека кодирования : XviD 73

Аудио #1
Идентификатор : 1
Формат : MPEG Audio
Версия формата : Version 1
Профиль формата : Layer 3
Идентификатор кодека : 55
Идентификатор кодека/Подсказка : MP3
Продолжительность : 44 м. 1 с.
Вид битрейта : Постоянный
Битрейт : 128 Кбит/сек
Каналы : 2 канала
Частота : 48,0 КГц
Метод сжатия : С потерями
Размер потока : 40,3 Мбайт (7%)
Выравнивание : Соединение по промежуткам
Продолжительность промежутка : 42 мс. (1,00 видеокадр)
Время предзагрузки промежутка : 504 мс.

Аудио #2
Идентификатор : 2
Формат : MPEG Audio
Версия формата : Version 1
Профиль формата : Layer 3
Режим : Joint stereo
Расширение режима : MS Stereo
Идентификатор кодека : 55
Идентификатор кодека/Подсказка : MP3
Продолжительность : 44 м. 1 с.
Вид битрейта : Постоянный
Битрейт : 128 Кбит/сек
Каналы : 2 канала
Частота : 48,0 КГц
Метод сжатия : С потерями
Размер потока : 40,3 Мбайт (7%)
Выравнивание : Соединение по промежуткам
Продолжительность промежутка : 42 мс. (1,00 видеокадр)
Время предзагрузки промежутка : 504 мс.
Библиотека кодирования : LAME3.99.5

pb.wtf



Скачать Хэп и Леонард через торрент http://pic1.kartinco.top/images/10/hmp2u.jpg Скачать фильм Хэп и Леонард через торрент бесплантно в хорошем качестве Описание: Сериал расскажет о необычной дружбе двух неудачников — Хэпа Коллинза и Леонарда Пайна. Хэп — белый работяга, который провел свою ... 10 10 1
Торрент: Зарегистрирован [2016-08-31 09:01] · скачан: 100 раз
Статус: √ проверено
Размер: 3.16 GB
Как cкачать? Как скачать Хэп и Леонард через торрент | qTorrent

% Раздел Тема Автор DL S | L
Зарубежные сериалы [ 8.68 GB ] Хэп и Леонард / Hap and Leonard / Сезон: 3 / Серии: 1-6 из 6 [2018 WEB-DL 720p] MVO [NewStudio] bober100 Скачать
1 | 0


Последний раз редактировалось: Bibendi (2016-08-31 09:40), всего редактировалось 3 раз(а)

28-11-2019 20:33  

Отключить всю рекламу на сайте

31-08-2016 09:06 Хэп и Леонард Скачать торрент  

31-08-2016 09:55 Хэп и Леонард Скачать торрент  

BUDDAA, 23,976 fpspb.wtf



    Дорогой пользователь! Огромная просьба, поблагодарите релизера, оцените раздачу и оставьте свои комментарий, если Вы скачали Хэп и Леонард через торрент бесплатно! Внесите свою лепту в развитие PiratBit!
    Комментировать посты могут только пользователи прошедшие не сложную регистрацию
    Показать сообщения:    

    Хэп и Леонард через торрент
    Скачать бесплатно Хэп и Леонард
    Хэп и Леонард скачать торрент
    Хэп и Леонард смотреть онлайн
    Cкачать фильм Хэп и Леонард бесплатно
    Хэп и Леонард скачать торрент в хорошем качестве
    Хэп и Леонард смотреть онлайн бесплатно в хорошем качестве


    Вы не можете начинать темы
    Вы не можете отвечать на сообщения
    Вы не можете редактировать свои сообщения
    Вы не можете удалять свои сообщения
    Вы не можете голосовать в опросах
    Вы не можете прикреплять файлы к сообщениям
    Вы можете скачивать файлы