Ссылка на приватное зеркало нашего сайта всего за 1$. Внимание количество ограничено!!!

2 сезон

iTunes

1 сезон

1

iTunes

iTunes

iTunes

1 сезон

RePack

30

ИГРА 18+

pack

ВАЖНО

!!Акция!!

Alien_RageХит недели

RePack

MK11
pack

Забери бонус

RePack

jed

!!Акция!!

Alien_Rage

RePack

fifa19

RePack

Assassins Creed: Odyssey

RePack

NEED FOR SPEED™ PAYBACK

4 сезон

9 сезон

Бесстыжие 9 сезон

Все сериалы

все сериалы на PB.wtf

RePack

FAR CRY 5
  

Джейсон Борн / Jason Bourne (Пол Гринграсс) [2016, боевик, триллер, BDRip 1080p] [DUB] [Лицензия BD CEE] pb.wtf

Джейсон Борн через торрент pb.wtf

Размер: 14.75 GB | Добавлен: 3 года 11 мес. назад | Торрент скачан:1334 раза
Скачать  

17-11-2016 17:02 Джейсон Борн Скачать торрент  

Джейсон Борн / Jason Bourne

Год выхода: 2016
Жанр: боевик, триллер
Страна: США
Продолжительность: 02:03:11
Перевод: Дублированный [Лицензия BD CEE]
Субтитры: Русские, английские

Режиссер: Пол Гринграсс

В ролях: Алисия Викандер, Мэтт Дэймон, Джулия Стайлз, Томми Ли Джонс, Венсан Кассель, Риз Ахмед, Ато Эссонда, Нив Гачев, Билл Кэмп, Александр Купер

О фильме:
Мир на грани катастрофы, а значит пришло время ему вернуться. Неаполь, Мюнхен, Нью-Йорк — его имя знают повсюду. Элитный суперагент, лучший из лучших, даже в Лас-Вегасе игра пойдет по его правилам. Он — Джейсон Борн.


Рип видеоряда от

Файл
Качество: BDRip 1080p
Кодек: MKV
Видео: MPEG-4 AVC, 14.4 Мбит/с, 1920x804, 23.976 fps
Звук: 48.0 KHz, AC3, 6 ch, 448 Кбит/с [DUB]
Звук: 48.0 KHz, DTS, 6 ch, 768 Кбит/с [DUB]
Звук: 48.0 KHz, DTS, 6 ch, 1510 Кбит/с [ENG]
General
Unique ID : 242307967144593711870959961722120896677 (0xB64AD124DCF7EE459A7D0DDC023500A5)
Complete name : E:\Borne.JasON.2O16.D.BDRip.1O8Op.mkv
Format : Matroska
Format version : Version 4 / Version 2
File size : 14.7 GiB
Duration : 2h 3mn
Overall bit rate : 17.1 Mbps
Encoded date : UTC 2016-11-17 15:19:58
Writing application : mkvmerge v9.4.2 ('So High') 64bit
Writing library : libebml v1.3.4 + libmatroska v1.4.5

Video
ID : 1
Format : AVC
Format/Info : Advanced Video Codec
Format profile : High@L4.1
Format settings, CABAC : Yes
Format settings, ReFrames : 5 frames
Codec ID : V_MPEG4/ISO/AVC
Duration : 2h 3mn
Bit rate : 14.1 Mbps
Width : 1 920 pixels
Height : 804 pixels
Display aspect ratio : 2.40:1
Frame rate mode : Constant
Frame rate : 23.976 fps
Color space : YUV
Chroma subsampling : 4:2:0
Bit depth : 8 bits
Scan type : Progressive
Bits/(Pixel*Frame) : 0.380
Stream size : 12.1 GiB (82%)
Writing library : x264 core 148 r2721 72d53ab
Encoding settings : cabac=1 / ref=5 / deblock=1:-3:-3 / analyse=0x3:0x133 / me=umh / subme=11 / psy=1 / psy_rd=1.00:0.00 / mixed_ref=1 / me_range=48 / chroma_me=1 / trellis=2 / 8x8dct=1 / cqm=0 / deadzone=21,11 / fast_pskip=0 / chroma_qp_offset=-2 / threads=24 / lookahead_threads=4 / sliced_threads=0 / nr=0 / decimate=1 / interlaced=0 / bluray_compat=0 / constrained_intra=0 / bframes=8 / b_pyramid=2 / b_adapt=2 / b_bias=0 / direct=1 / weightb=1 / open_gop=0 / weightp=2 / keyint=240 / keyint_min=23 / scenecut=40 / intra_refresh=0 / rc_lookahead=60 / rc=crf / mbtree=0 / crf=18.1 / qcomp=0.60 / qpmin=0 / qpmax=69 / qpstep=4 / vbv_maxrate=50000 / vbv_bufsize=62500 / crf_max=0.0 / nal_hrd=none / filler=0 / ip_ratio=1.35 / pb_ratio=1.25 / aq=3:0.80
Language : English
Default : Yes
Forced : No

Audio #1
ID : 2
Format : AC-3
Format/Info : Audio Coding 3
Mode extension : CM (complete main)
Format settings, Endianness : Big
Codec ID : A_AC3
Duration : 2h 3mn
Bit rate mode : Constant
Bit rate : 448 Kbps
Channel(s) : 6 channels
Channel positions : Front: L C R, Side: L R, LFE
Sampling rate : 48.0 KHz
Compression mode : Lossy
Stream size : 395 MiB (3%)
Language : Russian
Default : Yes
Forced : Yes

Audio #2
ID : 3
Format : DTS
Format/Info : Digital Theater Systems
Mode : 16
Format settings, Endianness : Big
Codec ID : A_DTS
Duration : 2h 3mn
Bit rate mode : Constant
Bit rate : 768 Kbps
Channel(s) : 6 channels
Channel positions : Front: L C R, Side: L R, LFE
Sampling rate : 48.0 KHz
Bit depth : 24 bits
Compression mode : Lossy
Stream size : 677 MiB (4%)
Language : Russian
Default : No
Forced : Yes

Audio #3
ID : 4
Format : DTS
Format/Info : Digital Theater Systems
Mode : 16
Format settings, Endianness : Big
Codec ID : A_DTS
Duration : 2h 3mn
Bit rate mode : Constant
Bit rate : 1 509 Kbps
Channel(s) : 6 channels
Channel positions : Front: L C R, Side: L R, LFE
Sampling rate : 48.0 KHz
Bit depth : 24 bits
Compression mode : Lossy
Stream size : 1.30 GiB (9%)
Language : English
Default : No
Forced : No

Text #1
ID : 5
Format : PGS
Muxing mode : zlib
Codec ID : S_HDMV/PGS
Codec ID/Info : Picture based subtitle format used on BDs/HD-DVDs
Language : Russian
Default : No
Forced : No

Text #2
ID : 6
Format : PGS
Muxing mode : zlib
Codec ID : S_HDMV/PGS
Codec ID/Info : Picture based subtitle format used on BDs/HD-DVDs
Language : Russian
Default : No
Forced : No

Menu
00:00:00.000 : en:Chapter 1
00:04:04.661 : en:Chapter 2
00:08:21.543 : en:Chapter 3
00:13:32.687 : en:Chapter 4
00:18:28.316 : en:Chapter 5
00:24:07.237 : en:Chapter 6
00:29:21.259 : en:Chapter 7
00:36:15.548 : en:Chapter 8
00:42:20.663 : en:Chapter 9
00:48:22.441 : en:Chapter 10
00:55:12.184 : en:Chapter 11
01:01:09.666 : en:Chapter 12
01:08:32.483 : en:Chapter 13
01:16:23.329 : en:Chapter 14
01:24:45.330 : en:Chapter 15
01:29:06.550 : en:Chapter 16
01:37:52.909 : en:Chapter 17
01:44:26.343 : en:Chapter 18
01:48:03.727 : en:Chapter 19
01:54:01.209 : en:Chapter 20
pb.wtf



Скачать Джейсон Борн через торрент http://i023.radikal.ru/1611/54/b002cbf97cec.png Скачать фильм Джейсон Борн через торрент бесплантно в хорошем качестве О фильме:Мир на грани катастрофы, а значит пришло время ему вернуться. Неаполь, Мюнхен, Нью-Йорк — его имя знают повсюду. Элитный ... 9.3 10 31
Info! Золотая раздача, скачанное не засчитывается.
Торрент: Зарегистрирован [2016-11-17 17:02] · скачан: 1 334 раз
Статус: √ проверено
Размер: 14.75 GB
Как cкачать? Как скачать Джейсон Борн через торрент | qTorrent

% Раздел Тема Автор DL S | L
Сборники и Сиквелы (48-60 fps) [ 13.93 GB ] Джейсон Борн: Квадрология / Jason Bourne: Quadrilogy [2002-2016 BDRip-HEVC 720p / 60 FPS Оригинал] Tiberiumsun69 Скачать
3 | 1
Ultra HD (UHD: 2K, 4K, 8K) — видео сверхвысокой чёткости [ 75.77 GB ] Джейсон Борн / Jason Bourne [2016 UHD BDRemux2160p] DUB+ 4xAVO + VO sheker187 Скачать
1 | 0
Ultra HD (UHD: 2K, 4K, 8K) — видео сверхвысокой чёткости [ 60.59 GB ] Джейсон Борн / Jason Bourne [2016 UHD BDRemux 2160p] DUB+AVO [ Blu-Ray CEE] bober100 Скачать
1 | 0
Фильмы (Blu-ray, BD-Remux, HDDVD) [ 30.54 GB ] Джейсон Борн / Jason Bourne [2016 BD Remux 1080p] DUB [ Blu-Ray CEE] bober100 Скачать
1 | 0
Ultra HD (UHD: 2K, 4K, 8K) — видео сверхвысокой чёткости [ 53 GB ] Джейсон Борн / Jason Bourne [2016 UHDWEBRip 2160p] - [] sheker187 Скачать
1 | 0
Фильмы 2016 [DVDrip, WEB-DLRip, HDrip] (DUB, MVO) [ 2.18 GB ] Джейсон Борн / Jason Bourne [2016 BDRip] - [] Twi7ter Скачать
2 | 0
Фильмы 2016 [DVDrip, WEB-DLRip, HDrip] (DUB, MVO) [ 1.46 GB ] Джейсон Борн / Jason Bourne [2016 BDRip] - [] Twi7ter Скачать
1 | 0


Последний раз редактировалось: killermax2013 (2016-11-17 17:24), всего редактировалось 1 раз

28-11-2019 20:33  

Отключить всю рекламу на сайте

17-11-2016 17:14 Джейсон Борн Скачать торрент  

killermax2013, Кстати, релиз не от HDclub. Там раздается BDRip 1080p, но без этой дорожки:

killermax2013 писал(а):

Звук: 48.0 KHz, AC3, 6 ch, 448 Кбит/с [DUB]

pb.wtf



17-11-2016 17:17 Джейсон Борн Скачать торрент  

highfivepb.wtf



17-11-2016 17:20 Джейсон Борн Скачать торрент  

-Lexx- писал(а):

killermax2013, Кстати, релиз не от HDclub. Там раздается BDRip 1080p, но без этой дорожки:

killermax2013 писал(а):

Звук: 48.0 KHz, AC3, 6 ch, 448 Кбит/с [DUB]


ихний релиз взят за основу и к нему прилеплена AC3 дорожкаpb.wtf



17-11-2016 17:26 Джейсон Борн Скачать торрент  

killermax2013 писал(а):

ихний релиз взят за основу и к нему прилеплена AC3 дорожка

Согласен. Только зря оттуда субтитры выкинули в формате SRT и прилепили PGS, надо было оставить...pb.wtf





Последний раз редактировалось: -Lexx- (2016-11-17 17:46), всего редактировалось 1 раз

17-11-2016 17:35 Джейсон Борн Скачать торрент  

-Lexx- писал(а):

killermax2013 писал(а):

ихний релиз взят за основу и к нему прилеплена AC3 дорожка

Согласен. Только зря оттуда субтитры выкинули в формате SRT и прилепили PGS, надо было оставить...

ну я не автор релиза pb.wtf
K-Lexx- писал(а):

Я знаю =)



17-11-2016 17:59 Джейсон Борн Скачать торрент  

скучная шляпа а не фильмpb.wtf



    Дорогой пользователь! Огромная просьба, поблагодарите релизера, оцените раздачу и оставьте свои комментарий, если Вы скачали Джейсон Борн через торрент бесплатно! Внесите свою лепту в развитие PiratBit!
    Комментировать посты могут только пользователи прошедшие не сложную регистрацию
    Показать сообщения:    

    Джейсон Борн через торрент
    Скачать бесплатно Джейсон Борн
    Джейсон Борн скачать торрент
    Джейсон Борн смотреть онлайн
    Cкачать фильм Джейсон Борн бесплатно
    Джейсон Борн скачать торрент в хорошем качестве
    Джейсон Борн смотреть онлайн бесплатно в хорошем качестве


    Вы не можете начинать темы
    Вы не можете отвечать на сообщения
    Вы не можете редактировать свои сообщения
    Вы не можете удалять свои сообщения
    Вы не можете голосовать в опросах
    Вы не можете прикреплять файлы к сообщениям
    Вы можете скачивать файлы