Ссылка на приватное зеркало всего за 1$. Внимание количество ограничено!!!

OK

1+1

iTunes

мы

OK

1

WEB-DLRip

Джокер

Пифагор

Ведьмак / The Witcher сериал

Лицензия

ПШазам

ОК

Оно 2

iTunes

30
pack

Вам бонус

ВАЖНО

!!Акция!!

Alien_RageХит недели

RePack

Resident Evil 21

ИГРА 18+

pack

RePack

jed

RePack

fifa19

RePack

Assassins Creed: Odyssey

RePack

NEED FOR SPEED™ PAYBACK

4 сезон

9 сезон

Бесстыжие 9 сезон

Все сериалы

все сериалы на PB.wtf

RePack

FAR CRY 5
  

Стрелок / Shooter / Сезон 1 / Серии 1-10 из 10 (Саймон Селлан Джоунс / Simon Cellan Jones) [2016 , США, боевик, драма, WEBRip-AVC] MVO [BaibaKo] pb.wtf

Стрелок через торрент pb.wtf

Размер: 7.86 GB | Добавлен: 3 года назад | Торрент скачан:135 раз
Скачать  

18-11-2016 00:41 Стрелок Скачать торрент  

Стрелок / Shooter
«Ветеран. Герой. Цель»


  • Год выпуска: 2016
  • Страна: США
  • Жанр: боевик, драма
  • Продолжительность: 00:41:00 (Серия)
  • Перевод: Профессиональный многоголосый [BaibaKo]
  • Режиссер: Саймон Селлан Джоунс / Simon Cellan Jones
  • В ролях:

    Анжелика Кенни (FBI Task Force), Лекси Колкер (Mary Swagger), Синтия Аддай-Робинсон (Nadine Memphis), Райан Филипп (Bob Lee Swagger), Омар Эппс (Isaac Johnson), Александр Бейтман (FBI Task Force), Шон Майкл (Grigory Krukov), Шантель Ван Сантен (Julie Swagger), Донзали Абернати (Mrs. Fenn), Брайан Ибсен (Agent Bozack), Эдди МакКлинток (Jack Payne), Афшин Оляи (FBI Agent)


  • Главным персонажем является бывший морской пехотинец и снайпер Боб Суэггер. Не по своей воле он оказывается вовлеченным в тайный заговор, главная цель которого заключается в ликвидации американского президента. Догадавшись о том, что его планируют подставить, Боб уходит в бега и готовится к тому, чтобы найти настоящего киллера.
  • Рейтинг:



  • Качество: WEBRip-AVC
  • Формат: :MPEG-4
  • Видео кодек: AVC
  • Аудио кодек: AC3
  • Видео: 1024x576 (16:9), 1899 kbps, 23,976 fps, 0,134 bpp
  • Аудио №1: русский / 5.1 / 48 kHz / 384 kbps / 16 bit |[BaibaKo]|
  • Аудио №2: английский / 5.1 / 48 kHz / 384 kbps / 16 bit
  • Релиз от: GEKADOL

    Внимание! Раздача ведётся путём добавления новых серий; при каждом добавлении создаётся новый торрент. Чтобы начать докачку новой серии, пользователям необходимо сделать следующее:
    (1) остановить скачивание,
    (2) удалить старый торрент у себя из клиента (старые серии удалять не надо),
    (3) скачать новый торрент и запустить его у себя в клиенте вместо старого, при этом указать клиенту путь в старую папку куда и должно происходить скачивание новых серий.
    Ваш клиент при этом должен произвести хеширование (проверку) старой папки (если не производит сам - помогите ему сделать это), и будет докачивать только те серии которых у вас ещё нет. Старые серии при этом не удаляются, а продолжают раздаваться!
    Eсли вы уже удалили старые серии, то предотвратить повторную закачку старых серий можно, отжав галочку в соответствующих местах при запуске нового торрента. По возможности, желательно не удалять старые серии как можно дольше чтобы релизёр не столько продолжал раздавать старые серии, а смог сконцентрироваться на новых.

    General
    Complete name : H:\Стрелок (Shooter 1)\Shooter.s01e01.WEBRip-AVC.Rus.Eng.BaibaKo.tv.mp4
    Format : MPEG-4
    Format profile : Base Media
    Codec ID : isom (isom/iso2/avc1/mp41)
    File size : 784 MiB
    Duration : 41 min
    Overall bit rate : 2 672 kb/s
    Writing application : XviD4PSP 7.0.313 DAILY
    HDVideo : Yes
    encoding_info : MATROSKA / WEBM > MP4 Произвольный / H264 > X264 CBR 2000kbps HQ / AC3 > AC3 CBR 384kbps / AC3 > AC3 CBR 384kbps

    Video
    ID : 1
    Format : AVC
    Format/Info : Advanced Video Codec
    Format profile : High@L3.1
    Format settings, CABAC : Yes
    Format settings, ReFrames : 4 frames
    Codec ID : avc1
    Codec ID/Info : Advanced Video Coding
    Duration : 41 min
    Bit rate : 1 899 kb/s
    Nominal bit rate : 2 000 kb/s
    Width : 1 024 pixels
    Height : 576 pixels
    Display aspect ratio : 16:9
    Frame rate mode : Constant
    Frame rate : 23.976 (24000/1001) FPS
    Color space : YUV
    Chroma subsampling : 4:2:0
    Bit depth : 8 bits
    Scan type : Progressive
    Bits/(Pixel*Frame) : 0.134
    Stream size : 557 MiB (71%)
    Writing library : x264 core 148 r2721M 72d53ab
    Encoding settings : cabac=1 / ref=3 / deblock=1:-1:-1 / analyse=0x3:0x133 / me=hex / subme=7 / psy=1 / psy_rd=1.00:0.20 / mixed_ref=1 / me_range=16 / chroma_me=1 / trellis=1 / 8x8dct=1 / cqm=0 / deadzone=21,11 / fast_pskip=1 / chroma_qp_offset=-3 / threads=5 / lookahead_threads=1 / sliced_threads=0 / nr=0 / decimate=1 / interlaced=0 / bluray_compat=0 / constrained_intra=0 / bframes=3 / b_pyramid=2 / b_adapt=2 / b_bias=0 / direct=3 / weightb=1 / open_gop=0 / weightp=2 / keyint=230 / keyint_min=23 / scenecut=40 / intra_refresh=0 / rc_lookahead=40 / rc=cbr / mbtree=1 / bitrate=2000 / ratetol=1.0 / qcomp=0.60 / qpmin=0 / qpmax=69 / qpstep=4 / vbv_maxrate=2000 / vbv_bufsize=2000 / nal_hrd=none / filler=0 / ip_ratio=1.40 / aq=1:1.00

    Audio #1
    ID : 2
    Format : AC-3
    Format/Info : Audio Coding 3
    Mode extension : CM (complete main)
    Format settings, Endianness : Big
    Codec ID : ac-3
    Duration : 41 min
    Bit rate mode : Constant
    Bit rate : 384 kb/s
    Channel(s) : 6 channels
    Channel positions : Front: L C R, Side: L R, LFE
    Sampling rate : 48.0 kHz
    Frame rate : 31.250 FPS (1536 spf)
    Bit depth : 16 bits
    Compression mode : Lossy
    Stream size : 113 MiB (14%)
    Language : Russian
    Default : Yes
    Alternate group : 1

    Audio #2
    ID : 3
    Format : AC-3
    Format/Info : Audio Coding 3
    Mode extension : CM (complete main)
    Format settings, Endianness : Big
    Codec ID : ac-3
    Duration : 41 min
    Bit rate mode : Constant
    Bit rate : 384 kb/s
    Channel(s) : 6 channels
    Channel positions : Front: L C R, Side: L R, LFE
    Sampling rate : 48.0 kHz
    Frame rate : 31.250 FPS (1536 spf)
    Bit depth : 16 bits
    Compression mode : Lossy
    Stream size : 113 MiB (14%)
    Language : English
    Default : No
    Alternate group : 1





    Скриншоты:
    скриншот   скриншот   скриншот   скриншот   скриншот   скриншот   скриншот  
    скриншот  

    Раздача ведётся путём добавления новых серий. Добавлена 10 серия (20.01.2017).Просьба перекачать торрент файл.

    pb.wtf



  • Скачать Стрелок через торрент http://i84.fastpic.ru/big/2016/1118/11/40990fd746393fb68fe2f7dd0cf59a11.jpg Скачать фильм Стрелок через торрент бесплантно в хорошем качестве qw.png Главным персонажем является бывший морской пехотинец и снайпер Боб Суэггер. Не по своей воле он оказывается вовлеченным в тайный ... 9.5 10 22
    Info! Золотая раздача, скачанное не засчитывается.
    Торрент: Зарегистрирован [2017-01-20 07:41] · скачан: 135 раз
    Статус: √ проверено
    Размер: 7.86 GB
    Как cкачать? Как скачать Стрелок через торрент | qTorrent

    % Раздел Тема Автор DL S | L
    Зарубежные сериалы [ 27.56 GB ] Стрелок / Shooter / Сезон: 3 / Серии: 1-13 из 13 [2018 WEBRip 1080p] MVO [BaibaKo] bober100 Скачать
    1 | 0
    Зарубежные сериалы [ 17.96 GB ] Стрелок / Shooter / Сезон 1 / Серии 1-10 из 10 [2016 WEBRip 720p] MVO nikola120 Скачать
    1 | 0
    Зарубежные сериалы [ 4.89 GB ] Стрелок / Shooter / 1 сезон / 1-10 серия из 10 [2016 WEBRip] MVO [LostFilm] bober100 Скачать
    1 | 0


    Последний раз редактировалось: GEKADOL (2017-01-20 07:41), всего редактировалось 13 раз(а)

    28-11-2019 20:33  

    Отключить всю рекламу на сайте

    18-11-2016 07:08 Стрелок Скачать торрент  

    Ремастер сериала " Тринадцатый". Надо будет глянуть,что в этот раз у них получиться.pb.wtf



    18-11-2016 07:15 Стрелок Скачать торрент  

    Сняли фильм и решили снять сериал ... глянем.pb.wtf



    25-11-2016 09:16 Стрелок Скачать торрент  

    Володя заказал главного пана Украины на грешной земле пиндосов и подставил местного морпеха бредд но будем посмотреть автору спасибо и долгих лет процветания

    pb.wtf



    10-12-2016 15:35 Стрелок Скачать торрент  

    Мне кажется или сериал - га.но ?pb.wtf



    27-12-2016 05:10 Стрелок Скачать торрент  

    надо бы глянуть спасибоpb.wtf



    31-12-2016 13:49 Стрелок Скачать торрент  

    МНЕ НРАВИТСЯpb.wtf



    06-01-2017 11:01 Стрелок Скачать торрент  

    Блин парюсь с годом))) Не привык ещё) pb.wtf



    13-01-2017 11:37 Стрелок Скачать торрент  

    Что за хрень? Почему на раздаче не числюсь)))pb.wtf



    13-01-2017 12:17 Стрелок Скачать торрент  

    перевод LostFilm рулитpb.wtf



    20-01-2017 07:48 Стрелок Скачать торрент  

    usup писал(а):

    перевод LostFilm рулит

    Согласен на 100%)))pb.wtf



    20-01-2017 09:50 Стрелок Скачать торрент  

    В кинопоиске, написано что есть 12 серия в 1 сезоне. Это правда или нет?pb.wtf



    20-01-2017 13:08 Стрелок Скачать торрент  

    bober100 писал(а):

    usup писал(а):

    перевод LostFilm рулит

    Согласен на 100%)))

    Не понятно одно, что вы тут делаете? pb.wtf



      Дорогой пользователь! Огромная просьба, поблагодарите релизера, оцените раздачу и оставьте свои комментарий, если Вы скачали Стрелок через торрент бесплатно! Внесите свою лепту в развитие PiratBit!
      Комментировать посты могут только пользователи прошедшие не сложную регистрацию
      Показать сообщения:    

      Стрелок через торрент
      Скачать бесплатно Стрелок
      Стрелок скачать торрент
      Стрелок смотреть онлайн
      Cкачать фильм Стрелок бесплатно
      Стрелок скачать торрент в хорошем качестве
      Стрелок смотреть онлайн бесплатно в хорошем качестве


      Вы не можете начинать темы
      Вы не можете отвечать на сообщения
      Вы не можете редактировать свои сообщения
      Вы не можете удалять свои сообщения
      Вы не можете голосовать в опросах
      Вы не можете прикреплять файлы к сообщениям
      Вы можете скачивать файлы