Ссылка на приватное зеркало нашего сайта всего за 1$. Внимание количество ограничено!!!

2 сезон

iTunes

1 сезон

1

iTunes

iTunes

iTunes

1 сезон

RePack

30

ИГРА 18+

pack

ВАЖНО

!!Акция!!

Alien_RageХит недели

RePack

MK11
pack

Забери бонус

RePack

jed

!!Акция!!

Alien_Rage

RePack

fifa19

RePack

Assassins Creed: Odyssey

RePack

NEED FOR SPEED™ PAYBACK

4 сезон

9 сезон

Бесстыжие 9 сезон

Все сериалы

все сериалы на PB.wtf

RePack

FAR CRY 5
  

Смерть на Ниле / Death on the Nile (Джон Гиллермин) [1978, драма, криминал, детектив, BDRip 720p by msltel] 2 x DUB, MVO, 2 x DVO pb.wtf

Смерть на Ниле через торрент pb.wtf

Размер: 6.69 GB | Добавлен: 3 года 11 мес. назад | Торрент скачан:29 раз
Скачать  

18-11-2016 08:39 Смерть на Ниле Скачать торрент  

Название: Смерть на Ниле
Оригинальное название: Death on the Nile
Год выпуска: 1978
Страна: Великобритания
Жанр: драма, криминал, детектив
Продолжительность: 02:20:41
Перевод: дублированный, профессиональный многоголосый, профессиональный двухголосый

Режиссёр: Джон Гиллермин

В ролях: Питер Устинов, Дэвид Найвен, Миа Фэрроу, Лоис Чайлз, Симон МакКоркиндэйл, Джордж Кеннеди, Мэгги Смит, Джек Уорден, Джон Финч, Анджела Лэнсбери, Оливия Хасси, Джейн Биркин, И.С. Джохар, Сэм Уэнамейкер, Бетт Дэвис, Гарри Эндрюс, Саид Джаффри, Барбара Хикс, Селия Аймри, Эндрю Мэнсон, Франсуа Гийом

Описание: Богатая наследница мисс Линнет Риджуэй уводит у лучшей подруги Джеки жениха и отправляется с ним в свадебное путешествие по Нилу. Снедаемая ненавистью, Джеки следует за ними. На борту парохода "Карнак" также находится еще дюжина пассажиров, которых стерва Линнет быстро превращает в своих смертельных врагов. Убийства не миновать. Когда оно случается, в дело вступает бельгийский сыщик Эркюль Пуаро, совершенно случайно путешествующий тем же рейсом... Фильм по одноименному роману Агаты Кристи. 1936 год.



Качество: BDRip 720p Сравнение с исходником
Формат: MKV
Видео: MPEG-4 AVC, 5648 Кбит/с, 1280х694, 23,976 кадра/с
Аудио 1: русский, AC3, 192 kbps, 2 ch, 48 kHz [дублированный, советский дубляж со вставками двухголосого перевода творческой группы Союза работников дубляжа (он же ТВ-6)]
Аудио 2: русский, AC3, 192 kbps, 2 ch, 48 kHz [дублированный, советский дубляж со вставками английского дубляжа и русскими субтитрами на места без перевода]
Аудио 3: русский, AC3, 192 kbps, 2 ch, 48 kHz [профессиональный многоголосый, киностудия Фильм-экспорт]
Аудио 4: русский, AC3, 192 kbps, 2 ch, 48 kHz [профессиональный двухголосый, НТВ+ (запись с трансляции 5 канала СПб от 21.05.2011 г.)]
Аудио 5: русский, AC3, 192 kbps, 2 ch, 48 kHz [профессиональный двухголосый, ТВ-6, 1995 г.]
Аудио 6: английский, AC3, 192 kbps, 2 ch, 48 kHz [оригинал]
Субтитры 1: русские
Субтитры 2: английские (для слабослышащих)
Имеются неименованные главы/чаптеры.
Общее
Уникальный идентификатор : 204925212702112116712295906550717330466 (0x9A2B290CB77C969AB0712F9CB8D7B422)
Полное имя : D:\Video\Смерть на Ниле.1978.BDRip.720p by msltel.mkv
Формат : Matroska
Версия формата : Version 4 / Version 2
Размер файла : 6,69 Гбайт
Продолжительность : 2 ч. 20 м.
Общий поток : 6803 Кбит/сек
Название фильма : Rip by msltel
Дата кодирования : UTC 2016-11-17 10:28:56
Программа кодирования : mkvmerge v8.2.0 ('World of Adventure') 64bit
Библиотека кодирования : libebml v1.3.1 + libmatroska v1.4.2

Видео
Идентификатор : 1
Формат : AVC
Формат/Информация : Advanced Video Codec
Профиль формата : High@L4.1
Параметр CABAC формата : Да
Параметр ReFrames формата : 9 кадров
Идентификатор кодека : V_MPEG4/ISO/AVC
Продолжительность : 2 ч. 20 м.
Битрейт : 5648 Кбит/сек
Ширина : 1280 пикселей
Высота : 694 пикселя
Соотношение сторон : 1,85:1
Режим частоты кадров : Постоянный
Частота кадров : 23,976 (24000/1001) кадра/сек
Цветовое пространство : YUV
Субдискретизация насыщенности : 4:2:0
Битовая глубина : 8 бит
Тип развёртки : Прогрессивная
Бит/(Пиксели*Кадры) : 0.265
Размер потока : 5,55 Гбайт (83%)
Библиотека кодирования : x264 core 146 r2538 121396c
Настройки программы : cabac=1 / ref=9 / deblock=1:-3:-3 / analyse=0x3:0x113 / me=umh / subme=9 / psy=1 / psy_rd=1.00:0.15 / mixed_ref=1 / me_range=32 / chroma_me=1 / trellis=1 / 8x8dct=1 / cqm=0 / deadzone=21,11 / fast_pskip=0 / chroma_qp_offset=-3 / threads=6 / lookahead_threads=1 / sliced_threads=0 / nr=0 / decimate=1 / interlaced=0 / bluray_compat=0 / constrained_intra=0 / bframes=6 / b_pyramid=2 / b_adapt=2 / b_bias=0 / direct=1 / weightb=1 / open_gop=0 / weightp=2 / keyint=230 / keyint_min=23 / scenecut=40 / intra_refresh=0 / rc_lookahead=40 / rc=crf / mbtree=0 / crf=17.9 / qcomp=0.60 / qpmin=0 / qpmax=69 / qpstep=4 / vbv_maxrate=50000 / vbv_bufsize=62500 / crf_max=0.0 / nal_hrd=none / filler=0 / ip_ratio=1.40 / pb_ratio=1.30 / aq=1:1.00
Язык : English
Default : Да
Forced : Нет

Аудио #1
Идентификатор : 2
Формат : AC-3
Формат/Информация : Audio Coding 3
Расширение режима : CM (complete main)
Параметр Endianness формата : Big
Идентификатор кодека : A_AC3
Продолжительность : 2 ч. 20 м.
Вид битрейта : Постоянный
Битрейт : 192 Кбит/сек
Каналы : 2 канала
Расположение каналов : Front: L R
Частота : 48,0 КГц
Частота кадров : 31,250 кадров/сек (1536 spf)
Метод сжатия : С потерями
Размер потока : 193 Мбайт (3%)
Заголовок : DUB (советский дубляж со вставками двухголосого перевода творческой группы Союза работников дубляжа (он же ТВ-6)
Язык : Russian
Default : Да
Forced : Нет

Аудио #2
Идентификатор : 3
Формат : AC-3
Формат/Информация : Audio Coding 3
Расширение режима : CM (complete main)
Параметр Endianness формата : Big
Идентификатор кодека : A_AC3
Продолжительность : 2 ч. 20 м.
Вид битрейта : Постоянный
Битрейт : 192 Кбит/сек
Каналы : 2 канала
Расположение каналов : Front: L R
Частота : 48,0 КГц
Частота кадров : 31,250 кадров/сек (1536 spf)
Метод сжатия : С потерями
Размер потока : 193 Мбайт (3%)
Заголовок : DUB (советский дубляж со вставками английского дубляжа и русскими субтитрами на места без перевода
Язык : Russian
Default : Нет
Forced : Нет

Аудио #3
Идентификатор : 4
Формат : AC-3
Формат/Информация : Audio Coding 3
Расширение режима : CM (complete main)
Параметр Endianness формата : Big
Идентификатор кодека : A_AC3
Продолжительность : 2 ч. 20 м.
Вид битрейта : Постоянный
Битрейт : 192 Кбит/сек
Каналы : 2 канала
Расположение каналов : Front: L R
Частота : 48,0 КГц
Частота кадров : 31,250 кадров/сек (1536 spf)
Метод сжатия : С потерями
Размер потока : 193 Мбайт (3%)
Заголовок : MVO (киностудия Фильм-экспорт)
Язык : Russian
Default : Нет
Forced : Нет

Аудио #4
Идентификатор : 5
Формат : AC-3
Формат/Информация : Audio Coding 3
Расширение режима : CM (complete main)
Параметр Endianness формата : Big
Идентификатор кодека : A_AC3
Продолжительность : 2 ч. 20 м.
Вид битрейта : Постоянный
Битрейт : 192 Кбит/сек
Каналы : 2 канала
Расположение каналов : Front: L R
Частота : 48,0 КГц
Частота кадров : 31,250 кадров/сек (1536 spf)
Метод сжатия : С потерями
Размер потока : 193 Мбайт (3%)
Заголовок : DVO (НТВ+ (запись с трансляции 5 канала СПб от 21.05.2011 г.))
Язык : Russian
Default : Нет
Forced : Нет

Аудио #5
Идентификатор : 6
Формат : AC-3
Формат/Информация : Audio Coding 3
Расширение режима : CM (complete main)
Параметр Endianness формата : Big
Идентификатор кодека : A_AC3
Продолжительность : 2 ч. 20 м.
Вид битрейта : Постоянный
Битрейт : 192 Кбит/сек
Каналы : 2 канала
Расположение каналов : Front: L R
Частота : 48,0 КГц
Частота кадров : 31,250 кадров/сек (1536 spf)
Метод сжатия : С потерями
Размер потока : 193 Мбайт (3%)
Заголовок : DVO (ТВ-6, 1995 г.)
Язык : Russian
Default : Нет
Forced : Нет

Аудио #6
Идентификатор : 7
Формат : AC-3
Формат/Информация : Audio Coding 3
Расширение режима : CM (complete main)
Параметр Endianness формата : Big
Идентификатор кодека : A_AC3
Продолжительность : 2 ч. 20 м.
Вид битрейта : Постоянный
Битрейт : 192 Кбит/сек
Каналы : 2 канала
Расположение каналов : Front: L R
Частота : 48,0 КГц
Частота кадров : 31,250 кадров/сек (1536 spf)
Метод сжатия : С потерями
Размер потока : 193 Мбайт (3%)
Заголовок : original
Язык : English
Default : Нет
Forced : Нет

Текст #1
Идентификатор : 8
Формат : UTF-8
Идентификатор кодека : S_TEXT/UTF8
Идентификатор кодека/Информация : UTF-8 Plain Text
Продолжительность : 2 ч. 17 м.
Битрейт : 100 бит/сек
Count of elements : 1481
Размер потока : 101 Кбайт (0%)
Заголовок : русские
Язык : Russian
Default : Нет
Forced : Нет

Текст #2
Идентификатор : 9
Формат : UTF-8
Идентификатор кодека : S_TEXT/UTF8
Идентификатор кодека/Информация : UTF-8 Plain Text
Продолжительность : 2 ч. 15 м.
Битрейт : 70 бит/сек
Count of elements : 1708
Размер потока : 69,7 Кбайт (0%)
Заголовок : ангийские (для слабослышащих)
Язык : English
Default : Нет
Forced : Нет

Меню
00:00:00.000 : :Chapter 01
00:07:22.733 : :Chapter 02
00:15:29.136 : :Chapter 03
00:23:14.768 : :Chapter 04
00:32:42.168 : :Chapter 05
00:41:02.334 : :Chapter 06
00:50:34.656 : :Chapter 07
00:55:13.059 : :Chapter 08
01:06:53.384 : :Chapter 09
01:13:00.751 : :Chapter 10
01:19:33.101 : :Chapter 11
01:28:25.842 : :Chapter 12
01:34:05.014 : :Chapter 13
01:37:52.241 : :Chapter 14
01:43:08.265 : :Chapter 15
01:52:53.099 : :Chapter 16
02:20:41.266 : :Chapter 17

МОИ РЕЛИЗЫ
ВКОНТАКТЕ
pb.wtf



Скачать Смерть на Ниле через торрент http://s015.radikal.ru/i330/1611/f8/49a50ccfcf25.jpg Скачать фильм Смерть на Ниле через торрент бесплантно в хорошем качестве Описание: Богатая наследница мисс Линнет Риджуэй уводит у лучшей подруги Джеки жениха и отправляется с ним в свадебное путешествие по Нилу. ... 10 10 1
Info! Золотая раздача, скачанное не засчитывается.
Торрент: Зарегистрирован [2016-11-18 08:39] · скачан: 29 раз
Статус: √ проверено
Размер: 6.69 GB
Как cкачать? Как скачать Смерть на Ниле через торрент | qTorrent

% Раздел Тема Автор DL S | L
Фильмы [HD 720p, 1080p] (Хороший звук DUB, MVO) [ 18.43 GB ] Смерть на Ниле / Death on the Nile [1978 BDRip 1080p by msltel] 2 x DUB MVO 2 x DVO msltel Скачать
1 | 0

28-11-2019 20:33  

Отключить всю рекламу на сайте

    Дорогой пользователь! Огромная просьба, поблагодарите релизера, оцените раздачу и оставьте свои комментарий, если Вы скачали Смерть на Ниле через торрент бесплатно! Внесите свою лепту в развитие PiratBit!
    Комментировать посты могут только пользователи прошедшие не сложную регистрацию
    Показать сообщения:    

    Смерть на Ниле через торрент
    Скачать бесплатно Смерть на Ниле
    Смерть на Ниле скачать торрент
    Смерть на Ниле смотреть онлайн
    Cкачать фильм Смерть на Ниле бесплатно
    Смерть на Ниле скачать торрент в хорошем качестве
    Смерть на Ниле смотреть онлайн бесплатно в хорошем качестве


    Вы не можете начинать темы
    Вы не можете отвечать на сообщения
    Вы не можете редактировать свои сообщения
    Вы не можете удалять свои сообщения
    Вы не можете голосовать в опросах
    Вы не можете прикреплять файлы к сообщениям
    Вы можете скачивать файлы