Ссылка на приватное зеркало нашего сайта всего за 1$. Внимание количество ограничено!!!

2 сезон

iTunes

1 сезон

1

2 сезон

2 сезон

iTunes

1 сезон

RePack

30

Новинка

ВАЖНО

ИГРА 18+

pack

RePack

MK11
pack

Забери бонус

RePack

jed

!!Акция!!

Alien_Rage

RePack

fifa19

RePack

Assassins Creed: Odyssey

RePack

NEED FOR SPEED™ PAYBACK

4 сезон

9 сезон

Бесстыжие 9 сезон

Все сериалы

все сериалы на PB.wtf

RePack

FAR CRY 5
  

Убийство без границ (Команда) / Mord Uden Grænser (The Team) / Сезон: 1 / Серии: 1-8 из 8 (Каспер Гордсёе, Катрин Уиндфелд) [2015 г., криминал, HDRip] DUB pb.wtf

Убийство без границ через торрент pb.wtf

Размер: 5.82 GB | Добавлен: 4 года назад | Торрент скачан:53 раза
Скачать  

18-11-2016 17:26 Убийство без границ Скачать торрент  

Убийство без границ (Команда) / Mord Uden Grænser (The Team)
Год выпуска: 2015
Страна: Австрия, Бельгия, Германия, Дания, Швейцария
Жанр: криминал
Продолжительность: 8 x ~ 00:58:00
Перевод: Дублированный (Русский Репортаж)

Режиссер: Каспер Гордсёе, Катрин Уиндфелд

rating

В ролях: Ларс Миккельсен, Жасмин Герат, Верле Батенс, Николас Офчарек, Карлос Леаль, Ида Энгволль, Кун Де Бу, Мириам Штайн, Хильде ван Мигем, Александра Рапапорт, Филип Петерс, Марк Бенджамин, Йелла Хаасе, Санни Меллес, Андреас Питшманн, Андре Хеннике, Оле Бойсен, Надешда Бреннике, Лисбет Вульфф, Наталья Руджевич, Георг Вейтль

Описание: Торговля людьми, принудительная проституция и мошенничество с налогами. Европейская следственная группа занимается расследованием деятельности организованных преступных группировок в единой Европе.

Качество: HDRip
Формат: AVI
Видео кодек: XviD
Аудио кодек: AC3
Видео: XviD, ~ 1600 Кбит/с, 720x400, 25 кадр/с
Аудио: AC3, 2 ch, 192 Кбит/с, 48 kHz
Релиз от: Koenig
Sample
Общее
Полное имя : Mord.Uden.Graenser.2015.HDRip\Mord.Uden.Graenser.S01.E02.2015.HDRip.avi
Формат : AVI
Формат/Информация : Audio Video Interleave
Размер файла : 745 Мбайт
Продолжительность : 58 м. 27 с.
Общий поток : 1782 Кбит/сек
Программа кодирования : VirtualDubMod 1.5.10.2 (build 2540/release)
Библиотека кодирования : VirtualDubMod build 2540/release

Видео
Идентификатор : 0
Формат : MPEG-4 Visual
Профиль формата : Advanced Simple@L5
Параметр BVOP формата : 1
Параметр QPel формата : Нет
Параметр GMC формата : Без точки перехода
Параметр матрицы формата : Выборочная
Идентификатор кодека : XVID
Идентификатор кодека/Подсказка : XviD
Продолжительность : 58 м. 27 с.
Битрейт : 1580 Кбит/сек
Ширина : 720 пикселей
Высота : 400 пикселей
Соотношение сторон : 16:9
Частота кадров : 25,000 кадров/сек
Цветовое пространство : YUV
Субдискретизация насыщенности : 4:2:0
Битовая глубина : 8 бит
Тип развёртки : Прогрессивная
Метод сжатия : С потерями
Бит/(Пиксели*Кадры) : 0.219
Размер потока : 660 Мбайт (89%)
Библиотека кодирования : XviD 73

Аудио
Идентификатор : 1
Формат : AC-3
Формат/Информация : Audio Coding 3
Расширение режима : CM (complete main)
Параметр Endianness формата : Big
Идентификатор кодека : 2000
Продолжительность : 58 м. 26 с.
Вид битрейта : Постоянный
Битрейт : 192 Кбит/сек
Каналы : 2 канала
Расположение каналов : Front: L R
Частота : 48,0 КГц
Частота кадров : 31,250 кадров/сек (1536 spf)
Битовая глубина : 16 бит
Метод сжатия : С потерями
Размер потока : 80,3 Мбайт (11%)
Выравнивание : Разделение по промежуткам
Продолжительность промежутка : 40 мс. (1,00 видеокадр)
Время предзагрузки промежутка : 500 мс.

pb.wtf



Скачать Убийство без границ через торрент http://pic1.kartinco.top/images/11/dj626.jpg Скачать фильм Убийство без границ через торрент бесплантно в хорошем качестве Описание: Торговля людьми, принудительная проституция и мошенничество с налогами. Европейская следственная группа занимается расследованием ... 9.7 10 6
Info! Золотая раздача, скачанное не засчитывается.
Торрент: Зарегистрирован [2016-11-18 17:26] · скачан: 53 раз
Статус: √ проверено
Размер: 5.82 GB
Как cкачать? Как скачать Убийство без границ через торрент | qTorrent

28-11-2019 20:33  

Отключить всю рекламу на сайте

    Дорогой пользователь! Огромная просьба, поблагодарите релизера, оцените раздачу и оставьте свои комментарий, если Вы скачали Убийство без границ через торрент бесплатно! Внесите свою лепту в развитие PiratBit!
    Комментировать посты могут только пользователи прошедшие не сложную регистрацию
    Показать сообщения:    

    Убийство без границ через торрент
    Скачать бесплатно Убийство без границ
    Убийство без границ скачать торрент
    Убийство без границ смотреть онлайн
    Cкачать фильм Убийство без границ бесплатно
    Убийство без границ скачать торрент в хорошем качестве
    Убийство без границ смотреть онлайн бесплатно в хорошем качестве


    Вы не можете начинать темы
    Вы не можете отвечать на сообщения
    Вы не можете редактировать свои сообщения
    Вы не можете удалять свои сообщения
    Вы не можете голосовать в опросах
    Вы не можете прикреплять файлы к сообщениям
    Вы можете скачивать файлы