Доктор Стрэндж

Лицензия

Добыча

Дубляж

Дом дракона

1 сезон

Тор

Дубляж

В эфире

Дубляж

Там, где раки поют

MVO

Властелин колец

1 сезон

GLOBAL

pack

Рекомендуем

30

Пиратка

ВАЖНО

ВАЖНО

Ghostwire

Пиратка

jed

RePack

nioh2

RePack

RDR2

RePack

NEED FOR SPEED™ PAYBACK

RePack

скачать торрент

Кинопоиск HD

Острые козырьки 6 сезон

6 сезон

FAR CRY 6

RePack

скачать торрент

Лицензия

скачать торрент

MVO

1

1 сезон

скачать торрент

1 сезон

скачать торрент

Лицензия

  

Призрак и Тьма / The Ghost and the Darkness (Стивен Хопкинс) [1996, ужасы, триллер, драма, приключения, BDRip 720p ] MVO, 2 x DVO, AVO

Призрак и Тьма через торрент pb.wtf

Качают: 2 [ 0 KB/s ]
Размер: 5.57 GB | Добавлен: 6 лет назад | Торрент скачан:103 раза
Смотреть онлайн | Скачать   

19-11-2016 10:05 Призрак и Тьма Скачать торрент  

Название: Призрак и Тьма
Оригинальное название: The Ghost and the Darkness
Год выпуска: 1996
Страна: США, Германия
Жанр: ужасы, триллер, драма, приключения
Продолжительность: 01:50:00
Перевод: профессиональный многоголосый, профессиональный двухголосый, авторский

Режиссёр: Стивен Хопкинс

В ролях: Майкл Дуглас, Вэл Килмер, Том Уилкинсон, Джон Кэни, Бернард Хилл, Брайан МакКарди, Эмили Мортимер, Ом Пури, Генри Кэл, Курт Эгельхоф, Тедди Редди, Рэхим Кхан, Джек Денварейн, Глен Габела, Ричард Нуамба, Ник Лоренц, Алекс Фернс, Джиллз Мастерс, Патрик Гиффорд, Джастин Гиффорд, Джордж Миддлкуп

Описание: 1898 год. Лондон. Молодой строитель полковник Джон Паттерсон получает срочное задание построить мост через реку в африканской провинции Цаво. Всю жизнь мечтавший о путешествии в Африку Паттерсон, оставив беременную жену, спешит к месту работ. На месте его ожидает целая армия рабочих. Несмотря на разницу вероисповеданий, всех их объединяет один общий страх перед объявившимися в этих краях львами-людоедами. В первый же день пребывания Паттерсона на африканской земле лев покалечил одного из индусов. Устроив засаду, Джон застрелил льва к огромной радости всего рабочего люда. Строительство продвигалось успешно до того момента, пока вдруг снова не стали погибать рабочие...



Качество: BDRip 720p Сравнение с исходником
Формат: MKV
Видео: MPEG-4 AVC, 5588 Кбит/с, 1280x614, 23,976 кадра/с
Аудио 1: русский, AC3, 448 kbps, 6 ch, 48 kHz [профессиональный многоголосый, Гемини Фильм]
Аудио 2: русский, AC3, 448 kbps, 6 ch, 48 kHz [профессиональный двухголосый, Лазер Видео]
Аудио 3: русский, AC3, 192 kbps, 2 ch, 48 kHz [профессиональный двухголосый, OPT]
Аудио 4: русский, AC3, 192 kbps, 2 ch, 48 kHz [авторский, Василий Горчаков]
Аудио 5: английский, AC3, 384 kbps, 6 ch, 48 kHz [оригинал]
Субтитры 1: русские (вариант 1)
Субтитры 2: русские (вариант 2)
Субтитры 3: английские
Имеются неименованные главы/чаптеры.
Общее
Уникальный идентификатор : 251482872615179366198804553261710086377 (0xBD31D6E89EE318D0B24838AC723490E9)
Полное имя : D:\Video\Призрак и тьма.1996.BDRip.720p by msltel.mkv
Формат : Matroska
Версия формата : Version 4 / Version 2
Размер файла : 5,57 Гбайт
Продолжительность : 1 ч. 50 м.
Общий поток : 7254 Кбит/сек
Дата кодирования : UTC 2016-11-19 05:56:42
Программа кодирования : mkvmerge v8.2.0 ('World of Adventure') 64bit
Библиотека кодирования : libebml v1.3.1 + libmatroska v1.4.2

Видео
Идентификатор : 1
Формат : AVC
Формат/Информация : Advanced Video Codec
Профиль формата : [email protected]
Параметр CABAC формата : Да
Параметр ReFrames формата : 9 кадров
Идентификатор кодека : V_MPEG4/ISO/AVC
Продолжительность : 1 ч. 49 м.
Битрейт : 5588 Кбит/сек
Ширина : 1280 пикселей
Высота : 614 пикселей
Соотношение сторон : 2,085
Режим частоты кадров : Постоянный
Частота кадров : 23,976 (24000/1001) кадра/сек
Цветовое пространство : YUV
Субдискретизация насыщенности : 4:2:0
Битовая глубина : 8 бит
Тип развёртки : Прогрессивная
Бит/(Пиксели*Кадры) : 0.297
Размер потока : 4,29 Гбайт (77%)
Библиотека кодирования : x264 core 146 r2538 121396c
Настройки программы : cabac=1 / ref=9 / deblock=1:-3:-3 / analyse=0x3:0x113 / me=umh / subme=9 / psy=1 / psy_rd=1.00:0.15 / mixed_ref=1 / me_range=32 / chroma_me=1 / trellis=1 / 8x8dct=1 / cqm=0 / deadzone=21,11 / fast_pskip=0 / chroma_qp_offset=-3 / threads=6 / lookahead_threads=1 / sliced_threads=0 / nr=0 / decimate=1 / interlaced=0 / bluray_compat=0 / constrained_intra=0 / bframes=7 / b_pyramid=2 / b_adapt=2 / b_bias=0 / direct=1 / weightb=1 / open_gop=0 / weightp=2 / keyint=230 / keyint_min=23 / scenecut=40 / intra_refresh=0 / rc_lookahead=40 / rc=crf / mbtree=0 / crf=20.1 / qcomp=0.60 / qpmin=0 / qpmax=69 / qpstep=4 / vbv_maxrate=50000 / vbv_bufsize=62500 / crf_max=0.0 / nal_hrd=none / filler=0 / ip_ratio=1.40 / pb_ratio=1.30 / aq=1:1.00
Язык : English
Default : Да
Forced : Нет

Аудио #1
Идентификатор : 2
Формат : AC-3
Формат/Информация : Audio Coding 3
Расширение режима : CM (complete main)
Параметр Endianness формата : Big
Идентификатор кодека : A_AC3
Продолжительность : 1 ч. 49 м.
Вид битрейта : Постоянный
Битрейт : 448 Кбит/сек
Каналы : 6 каналов
Расположение каналов : Front: L C R, Side: L R, LFE
Частота : 48,0 КГц
Частота кадров : 31,250 кадров/сек (1536 spf)
Метод сжатия : С потерями
Размер потока : 352 Мбайт (6%)
Заголовок : MVO (Гемини Фильм)
Язык : Russian
Default : Да
Forced : Нет

Аудио #2
Идентификатор : 3
Формат : AC-3
Формат/Информация : Audio Coding 3
Расширение режима : CM (complete main)
Параметр Endianness формата : Big
Идентификатор кодека : A_AC3
Продолжительность : 1 ч. 50 м.
Вид битрейта : Постоянный
Битрейт : 448 Кбит/сек
Каналы : 6 каналов
Расположение каналов : Front: L C R, Side: L R, LFE
Частота : 48,0 КГц
Частота кадров : 31,250 кадров/сек (1536 spf)
Метод сжатия : С потерями
Размер потока : 352 Мбайт (6%)
Заголовок : DVO (Лазер Видео)
Язык : Russian
Default : Нет
Forced : Нет

Аудио #3
Идентификатор : 4
Формат : AC-3
Формат/Информация : Audio Coding 3
Расширение режима : CM (complete main)
Параметр Endianness формата : Big
Идентификатор кодека : A_AC3
Продолжительность : 1 ч. 49 м.
Вид битрейта : Постоянный
Битрейт : 192 Кбит/сек
Каналы : 2 канала
Расположение каналов : Front: L R
Частота : 48,0 КГц
Частота кадров : 31,250 кадров/сек (1536 spf)
Метод сжатия : С потерями
Размер потока : 151 Мбайт (3%)
Заголовок : DVO (OPT)
Язык : Russian
Default : Нет
Forced : Нет

Аудио #4
Идентификатор : 5
Формат : AC-3
Формат/Информация : Audio Coding 3
Расширение режима : CM (complete main)
Параметр Endianness формата : Big
Идентификатор кодека : A_AC3
Продолжительность : 1 ч. 49 м.
Вид битрейта : Постоянный
Битрейт : 192 Кбит/сек
Каналы : 2 канала
Расположение каналов : Front: L R
Частота : 48,0 КГц
Частота кадров : 31,250 кадров/сек (1536 spf)
Метод сжатия : С потерями
Размер потока : 151 Мбайт (3%)
Заголовок : AVO (Василий Горчаков)
Язык : Russian
Default : Нет
Forced : Нет

Аудио #5
Идентификатор : 6
Формат : AC-3
Формат/Информация : Audio Coding 3
Расширение режима : CM (complete main)
Параметр Endianness формата : Big
Идентификатор кодека : A_AC3
Продолжительность : 1 ч. 49 м.
Вид битрейта : Постоянный
Битрейт : 384 Кбит/сек
Каналы : 6 каналов
Расположение каналов : Front: L C R, Side: L R, LFE
Частота : 48,0 КГц
Частота кадров : 31,250 кадров/сек (1536 spf)
Метод сжатия : С потерями
Размер потока : 302 Мбайт (5%)
Заголовок : original
Язык : English
Default : Нет
Forced : Нет

Текст #1
Идентификатор : 7
Формат : UTF-8
Идентификатор кодека : S_TEXT/UTF8
Идентификатор кодека/Информация : UTF-8 Plain Text
Продолжительность : 1 ч. 41 м.
Битрейт : 64 бит/сек
Count of elements : 571
Размер потока : 48,0 Кбайт (0%)
Заголовок : русские (вариант 1)
Язык : Russian
Default : Нет
Forced : Нет

Текст #2
Идентификатор : 8
Формат : UTF-8
Идентификатор кодека : S_TEXT/UTF8
Идентификатор кодека/Информация : UTF-8 Plain Text
Продолжительность : 1 ч. 43 м.
Битрейт : 49 бит/сек
Count of elements : 731
Размер потока : 38,0 Кбайт (0%)
Заголовок : русские (вариант 2)
Язык : Russian
Default : Нет
Forced : Нет

Текст #3
Идентификатор : 9
Формат : UTF-8
Идентификатор кодека : S_TEXT/UTF8
Идентификатор кодека/Информация : UTF-8 Plain Text
Продолжительность : 1 ч. 41 м.
Битрейт : 36 бит/сек
Count of elements : 866
Размер потока : 27,4 Кбайт (0%)
Заголовок : английские
Язык : English
Default : Нет
Forced : Нет

Меню
00:00:00.000 : en:Chapter 01
00:10:15.781 : en:Chapter 02
00:19:09.439 : en:Chapter 03
00:27:25.477 : en:Chapter 04
00:37:09.852 : en:Chapter 05
00:47:32.432 : en:Chapter 06
00:56:59.416 : en:Chapter 07
01:05:06.068 : en:Chapter 08
01:13:49.466 : en:Chapter 09
01:21:57.913 : en:Chapter 10
01:30:09.779 : en:Chapter 11
01:42:23.345 : en:Chapter 12

МОИ РЕЛИЗЫ
ВКОНТАКТЕ



Скачать Призрак и Тьма через торрент http://s020.radikal.ru/i716/1611/92/babcb28c1914.jpg Скачать, смотреть онлайн Призрак и Тьма бесплантно в хорошем качестве Описание: 1898 год. Лондон. Молодой строитель полковник Джон Паттерсон получает срочное задание построить мост через реку в африканской ... 9.4 10 7
Info! Золотая раздача, скачанное не засчитывается.
Торрент: Зарегистрирован [2016-11-19 10:05] · скачан: 103 раз
Статус: √ проверено
Размер: 5.57 GB
Как cкачать? Как скачать Призрак и Тьма через торрент | UTorrent

% Раздел Тема Автор DL S | L
Фильмы [HD 720p, 1080p] (Хороший звук DUB, MVO) [ 14.3 GB ] Призрак и Тьма / The Ghost and the Darkness | MVO | 1080p msltel Скачать
1 | 0

28-11-2019 20:33  


Отключить вcю реклaмy на сайте, в т.ч. и в плеере онлайн просмотра!

    Дорогой пользователь! Огромная просьба, поблагодарите релизера, оцените раздачу и оставьте свои комментарий, если Вы скачали Призрак и Тьма через торрент бесплатно!!
    Комментировать посты могут только пользователи прошедшие не сложную регистрацию
    Показать сообщения:    


    Призрак и Тьма через торрент
    Скачать бесплатно Призрак и Тьма
    Призрак и Тьма скачать торрент
    Призрак и Тьма смотреть онлайн
    Cкачать фильм Призрак и Тьма бесплатно
    Призрак и Тьма скачать торрент в хорошем качестве
    Призрак и Тьма смотреть онлайн бесплатно в хорошем качестве
    Вы не можете начинать темы
    Вы не можете отвечать на сообщения
    Вы не можете редактировать свои сообщения
    Вы не можете удалять свои сообщения
    Вы не можете голосовать в опросах
    Вы не можете прикреплять файлы к сообщениям
    Вы можете скачивать файлы
    Призрак и Тьма / The Ghost and the Darkness [1996, ужасы, триллер, драма, приключения, BDRip 720p ] MVO, 2 x DVO, AVO смотреть онлайн, скачать торрент picoco.icu