Ссылка на приватное зеркало нашего сайта всего за 1$. Внимание количество ограничено!!!

2 сезон

iTunes

1 сезон

1

2 сезон

2 сезон

iTunes

1 сезон

RePack

30

Ultimate

ВАЖНО

ИГРА 18+

pack

RePack

MK11
pack

Забери бонус

RePack

jed

!!Акция!!

Alien_Rage

RePack

fifa19

RePack

Assassins Creed: Odyssey

RePack

NEED FOR SPEED™ PAYBACK

4 сезон

9 сезон

Бесстыжие 9 сезон

Все сериалы

все сериалы на PB.wtf

RePack

FAR CRY 5
  

Завтра не наступит / No Tomorrow / Сезон 1 / Серии 1-8 из 13 (Брэд Силберлинг / Brad Silberling) [2016, драма, комедия, WEB-DL 720p] [MVO] (Fox Life) pb.wtf

Завтра не наступит через торрент pb.wtf

Размер: 10.84 GB | Добавлен: 3 года 11 мес. назад | Торрент скачан:4 раза
Скачать  

19-11-2016 15:45 Завтра не наступит Скачать торрент  

Завтра не наступит / No Tomorrow
Год выпуска: 2016
Выпущено: США
Жанр: драма, комедия
Продолжительность: 1 х ~00:43:00
Перевод: Профессиональный (многоголосый закадровый) (Fox Life)
Субтитры: English

Режиссер: Стюарт Гиллард, Брэд Силберлинг

В ролях: Джошуа Сасс, Виктория Андерсон, Jonathan Langdon, Сарайю Рао, Джесси Рат, Эми Пьетц, Тед МакГинли, Джордж Бейзил, Келли Стейблз, Чела Хорсдэл

Описание:
Романтическая история о двух противоположностях — девушке, которая всеми силами стремится к стабильности и избегает риска, и мужчине, который верит, что конец света неизбежен, и потому готов на все, что угодно, чтобы прожить оставшиеся дни незабываемо.

Запись и сведение: SerGV

Качество: WEB-DL 720p
Формат: MKV
Видео: MPEG-4 AVC, 1280x720 at 25.000 fps, ~4000 kbps avg
Аудио: 48 kHz, AC3, 2/0 (L,R) ch, ~192 kbps avg |Многоголосый закадровый, Fox Life|
Аудио: 48 kHz, AC3, 3/2 (L,C,R,l,r) + LFE ch, ~384.00 kbps avg |Eng|
General
Unique ID : 216010838823724242446933005964990994378 (0xA2822C9DA1ED8D09A15DAA901C13D7CA)
Complete name : E:\No.Tomorrow.S01.720p.WEB-DL.Rus.Eng.CasStudio\No.Tomorrow.S01E01.720p.WEB-DL.Rus.Eng.CasStudio.mkv
Format : Matroska
Format version : Version 4 / Version 2
File size : 1.37 GiB
Duration : 40mn 44s
Overall bit rate : 4 802 Kbps
Movie name : No Tomorrow (2016) 1x01 - Release by SerGV for CasStudio
Encoded date : UTC 2016-10-29 07:41:02
Writing application : mkvmerge v9.4.2 ('So High') 64bit
Writing library : libebml v1.3.4 + libmatroska v1.4.5
Attachements : cover.jpg

Video
ID : 1
Format : AVC
Format/Info : Advanced Video Codec
Format profile : High@L3.1
Format settings, CABAC : No
Format settings, ReFrames : 2 frames
Codec ID : V_MPEG4/ISO/AVC
Duration : 40mn 44s
Bit rate : 4 131 Kbps
Width : 1 280 pixels
Height : 720 pixels
Display aspect ratio : 16:9
Frame rate mode : Constant
Frame rate : 25.000 fps
Color space : YUV
Chroma subsampling : 4:2:0
Bit depth : 8 bits
Scan type : Progressive
Bits/(Pixel*Frame) : 0.179
Stream size : 1.18 GiB (86%)
Title : No Tomorrow 1x01: Pilot - Release by SerGV for CasStudio
Language : English
Default : Yes
Forced : No
Color range : Limited
Color primaries : BT.709
Transfer characteristics : BT.709
Matrix coefficients : BT.709

Audio #1
ID : 2
Format : AC-3
Format/Info : Audio Coding 3
Mode extension : CM (complete main)
Format settings, Endianness : Big
Codec ID : A_AC3
Duration : 40mn 44s
Bit rate mode : Constant
Bit rate : 192 Kbps
Channel(s) : 2 channels
Channel positions : Front: L R
Sampling rate : 48.0 KHz
Compression mode : Lossy
Stream size : 56.0 MiB (4%)
Title : DD 2.0 @ 192 kbps - Многоголосый закадровый, Fox Life
Language : Russian
Default : Yes
Forced : No

Audio #2
ID : 3
Format : AC-3
Format/Info : Audio Coding 3
Mode extension : CM (complete main)
Format settings, Endianness : Big
Codec ID : A_AC3
Duration : 40mn 44s
Bit rate mode : Constant
Bit rate : 384 Kbps
Channel(s) : 6 channels
Channel positions : Front: L C R, Side: L R, LFE
Sampling rate : 48.0 KHz
Compression mode : Lossy
Stream size : 112 MiB (8%)
Title : DD 5.1 @ 384 kbps - Original
Language : English
Default : No
Forced : No

Text
ID : 4
Format : UTF-8
Codec ID : S_TEXT/UTF8
Codec ID/Info : UTF-8 Plain Text
Language : English
Default : No
Forced : No
Внимание! Раздача ведётся путём добавления новых серий; при каждом добавлении создётся новый торрент. Чтобы начать докачку новой серии, пользователям необходимо сделать следующее:
Остановить скачивание.
Удалить старый торрент у себя из клиента (старые серии удалять не надо).
Скачать новый торрент и запустить его у себя в клиенте вместо старого, при этом указать клиенту путь в старую папку куда и должно происходить скачивание новых серий.
Ваш клиент при этом должен произвести хеширование (проверку) старой папки (если не производит сам - помогите ему сделать это), и будет докачивать только те серии которых у вас ещё нет. Старые серии при этом не удаляются, а продолжают раздаваться!
Eсли вы уже удалили старые серии, то предотвратить повторную закачку старых серий можно, отжав галочку в соответсвующих местах при запуске нового торрента. По возможности, желательно не удалять старые серии как можно дольше чтобы релизёр не столько продолжал раздавать старые серии, а смог сконцентрироваться на новых.
pb.wtf



Скачать Завтра не наступит через торрент http://i82.fastpic.ru/big/2016/1030/3a/32056971bf5689e6fc38519bc544ca3a.jpg Скачать фильм Завтра не наступит через торрент бесплантно в хорошем качестве Описание:Романтическая история о двух противоположностях — девушке, которая всеми силами стремится к стабильности и избегает риска, и ... 7.8 10 4
Торрент: Зарегистрирован [2016-12-16 10:08] · скачан: 4 раз
Статус: √ проверено
Размер: 10.84 GB
Как cкачать? Как скачать Завтра не наступит через торрент | qTorrent

% Раздел Тема Автор DL S | L
Зарубежные сериалы [ 3.4 GB ] Завтра не наступит / No Tomorrow / Сезон 1 / Серии 1-8 из 13 [2016 WEB-DLRip] [MVO] killermax2013 Скачать
1 | 0


Последний раз редактировалось: killermax2013 (2016-12-16 10:08), всего редактировалось 2 раз(а)

28-11-2019 20:33  

Отключить всю рекламу на сайте

25-11-2016 12:47 Завтра не наступит Скачать торрент  

+5pb.wtf



02-12-2016 09:15 Завтра не наступит Скачать торрент  

+6pb.wtf



16-12-2016 10:09 Завтра не наступит Скачать торрент  

+8pb.wtf



    Дорогой пользователь! Огромная просьба, поблагодарите релизера, оцените раздачу и оставьте свои комментарий, если Вы скачали Завтра не наступит через торрент бесплатно! Внесите свою лепту в развитие PiratBit!
    Комментировать посты могут только пользователи прошедшие не сложную регистрацию
    Показать сообщения:    

    Завтра не наступит через торрент
    Скачать бесплатно Завтра не наступит
    Завтра не наступит скачать торрент
    Завтра не наступит смотреть онлайн
    Cкачать фильм Завтра не наступит бесплатно
    Завтра не наступит скачать торрент в хорошем качестве
    Завтра не наступит смотреть онлайн бесплатно в хорошем качестве


    Вы не можете начинать темы
    Вы не можете отвечать на сообщения
    Вы не можете редактировать свои сообщения
    Вы не можете удалять свои сообщения
    Вы не можете голосовать в опросах
    Вы не можете прикреплять файлы к сообщениям
    Вы можете скачивать файлы