Ссылка на приватное зеркало нашего сайта всего за 1$. Внимание количество ограничено!!!

2 сезон

iTunes

1 сезон

1

2 сезон

2 сезон

iTunes

1 сезон

RePack

30

Новинка

ВАЖНО

ИГРА 18+

pack

RePack

MK11
pack

Забери бонус

RePack

jed

!!Акция!!

Alien_Rage

RePack

fifa19

RePack

Assassins Creed: Odyssey

RePack

NEED FOR SPEED™ PAYBACK

4 сезон

9 сезон

Бесстыжие 9 сезон

Все сериалы

все сериалы на PB.wtf

RePack

FAR CRY 5
  

Бухая история / Пьяная история / Drunk History / Сезон 1 / Серии 1-8 из 8 (Дерек Уотерс) [2013, комедия, HDTVRip] [DVO] (HamsterStudio) pb.wtf

Бухая история через торрент pb.wtf

Размер: 1.57 GB | Добавлен: 4 года назад | Торрент скачан:167 раз
Скачать  

19-11-2016 17:42 Бухая история Скачать торрент  

Бухая история / Пьяная история / Drunk History / Сезон 1
Год выхода: 2013
Жанр: комедия, история
Страна: США
Продолжительность: ~00:22:00 серия
Перевод: Любительский (двухголосый) [HamsterStudio]

Режиссер: Джереми Коннер, Дерек Уотерс

В ролях: Джек Блэк, Стивен Мёрчант, Дейв Грол, Майкл Сера, Вайнона Райдер, Люк Уилсон, Оуэн Уилсон, Джейсон Шварцман, Альфред Молина, Зои Дешанель, Уилл Ферелл, Кристен Уиг

О фильме: Это хулиганский проект вебсайта Funny or Die, который Comedy Central превратил в полноценное телешоу. Рассказчики в разной степени опьянения пытаются пересказать известные исторические события, а различные голливудские знаменитости этот бред инсценируют, открывая рты под авторские реплики.



Релиз от: HamsterStudio

Файл
Качество: HDTVRip
Формат: AVI
Видео: XviD, 720x400, 1 117 Kbps, 23.976 fps
Звук: 48.0 KHz, MP3, 128 Kbps, 2 channels
General
Complete name : E:\Пьяная история (Drunk History)\Drunk.History.s01e01.HDTVRip.PROPER.HamsterStudio.avi
Format : AVI
Format/Info : Audio Video Interleave
File size : 201 MiB
Duration : 21mn 29s
Overall bit rate : 1 305 Kbps
Writing application : VirtualDubMod 1.5.10.3 | www.virtualdub-fr.org || (build 2550/release)
Writing library : VirtualDubMod build 2550/release

Video
ID : 0
Format : MPEG-4 Visual
Format profile : Advanced Simple@L5
Format settings, BVOP : 1
Format settings, QPel : No
Format settings, GMC : No warppoints
Format settings, Matrix : Default (H.263)
Codec ID : XVID
Codec ID/Hint : XviD
Duration : 21mn 29s
Bit rate : 1 117 Kbps
Width : 720 pixels
Height : 400 pixels
Display aspect ratio : 16:9
Frame rate : 23.976 fps
Color space : YUV
Chroma subsampling : 4:2:0
Bit depth : 8 bits
Scan type : Progressive
Compression mode : Lossy
Bits/(Pixel*Frame) : 0.162
Stream size : 172 MiB (86%)
Writing library : XviD 1.2.1 (UTC 2008-12-04)

Audio
ID : 1
Format : MPEG Audio
Format version : Version 1
Format profile : Layer 3
Codec ID : 55
Codec ID/Hint : MP3
Duration : 21mn 29s
Bit rate mode : Constant
Bit rate : 128 Kbps
Channel(s) : 2 channels
Sampling rate : 48.0 KHz
Compression mode : Lossy
Stream size : 19.7 MiB (10%)
Alignment : Aligned on interleaves
Writing library : LAME3.99r
Encoding settings : -m s -V 4 -q 2 -lowpass 17 -b 128
pb.wtf



Скачать Бухая история через торрент http://i73.fastpic.ru/big/2016/0207/31/f2ef604f8ef7503c30c2c942d08d0031.png Скачать фильм Бухая история через торрент бесплантно в хорошем качестве О фильме: Это хулиганский проект вебсайта Funny or Die, который Comedy Central превратил в полноценное телешоу. Рассказчики в разной ... 10 10 4
Торрент: Зарегистрирован [2016-11-19 17:42] · скачан: 167 раз
Статус: √ проверено
Размер: 1.57 GB
Как cкачать? Как скачать Бухая история через торрент | qTorrent



Последний раз редактировалось: killermax2013 (2016-11-19 18:03), всего редактировалось 1 раз

28-11-2019 20:33  

Отключить всю рекламу на сайте

19-11-2016 17:55 Бухая история Скачать торрент  

killermax2013, тех. данные не полныеpb.wtf



19-11-2016 18:08 Бухая история Скачать торрент  

а сэмпл можно?pb.wtf



19-11-2016 18:15 Бухая история Скачать торрент  

shadow912 писал(а):

а сэмпл можно?

так одна серия весит чуть больше семпла скачайте одну серию и оценитеpb.wtf



    Дорогой пользователь! Огромная просьба, поблагодарите релизера, оцените раздачу и оставьте свои комментарий, если Вы скачали Бухая история через торрент бесплатно! Внесите свою лепту в развитие PiratBit!
    Комментировать посты могут только пользователи прошедшие не сложную регистрацию
    Показать сообщения:    

    Бухая история через торрент
    Скачать бесплатно Бухая история
    Бухая история скачать торрент
    Бухая история смотреть онлайн
    Cкачать фильм Бухая история бесплатно
    Бухая история скачать торрент в хорошем качестве
    Бухая история смотреть онлайн бесплатно в хорошем качестве


    Вы не можете начинать темы
    Вы не можете отвечать на сообщения
    Вы не можете редактировать свои сообщения
    Вы не можете удалять свои сообщения
    Вы не можете голосовать в опросах
    Вы не можете прикреплять файлы к сообщениям
    Вы можете скачивать файлы