Достать ножи: Стеклянная луковица

MVO

Добыча

Дубляж

Уэнсдэй

1 сезон

Тор

Дубляж

13 клиническая

1 сезон

Жестокая ночь

MVO

Одни из нас

1 сезон

Deluxe

pack

Рекомендуем

30

Пиратка

ВАЖНО

ВАЖНО

Ghostwire

Пиратка

jed

RePack

nioh2

RePack

RDR2

RePack

NEED FOR SPEED™ PAYBACK

RePack

скачать торрент

Кинопоиск HD

Острые козырьки 6 сезон

6 сезон

FAR CRY 6

RePack

скачать торрент

Лицензия

скачать торрент

MVO

1

1 сезон

скачать торрент

1 сезон

скачать торрент

Лицензия

  

Джейсон Борн / Jason Bourne (Пол Гринграсс) [2016, боевик, триллер, BDRip 720p] Дубляж - [BD CEE] R.G.Resident

Джейсон Борн через торрент pb.wtf

Размер: 6.76 GB | Добавлен: 6 лет 2 мес. назад | Торрент скачан:787 раз
Смотреть онлайн | Скачать | Поддержите нас   

19-11-2016 21:59 Джейсон Борн Скачать торрент  

Джейсон Борн / Jason Bourne
««Вы знаете его имя»»

Год выпуска: 2016
Страна: Великобритания, Китай, США
Жанр: боевик, триллер
Продолжительность: 02:03:11
Перевод: Дубляж - [BD CEE]
Субтитры: русские (Forced, Full), украинские (Forced, Full), английские (Full, SDH, SDH-COLORED)
Режиссер: Пол Гринграсс
В ролях:

Мэтт Дэймон (Jason Bourne), Алисия Викандер (Heather Lee), Томми Ли Джонс (CIA Director Robert Dewey), Венсан Кассель (Asset), Джулия Стайлз (Nicky Parsons), Риз Ахмед (Aaron Kalloor), Ато Эссонда (Craig Jeffers), Скотт Шеперд (Director NI Edwin Russell), Билл Кэмп (Malcolm Smith), Винцец Кифер (Christian Dassault), Стефан Канкен (Baumen), Бен Стиляну (Greek Van Driver)
Описание:
Мир на грани катастрофы, а значит пришло время ему вернуться. Неаполь, Мюнхен, Нью-Йорк - его имя знают повсюду. Элитный суперагент, лучший из лучших, даже в Лас-Вегасе игра пойдет по его правилам. Он - Джейсон Борн.
Мировая премьера: 3 июля 2016

MPAA: PG-13 - Детям до 13 лет просмотр не желателен
Качество: BDRip 720p Rip by
Формат: MKV
Видео: AVC, 1280x536 (2.40:1), 5583 kbps, 23,976 fps, 0,339 bpp
Аудио №1: русский / DTS / 5.1 / 48 kHz / 768 kbps / 24 bit
Аудио №2: английский / DTS / 5.1 / 48 kHz / 1509 kbps / 24 bit
x264 [info]: frame I:1120 Avg QP:13.66 size:110436
x264 [info]: frame P:54189 Avg QP:16.76 size: 41930
x264 [info]: frame B:121912 Avg QP:18.04 size: 22638

General
Unique ID : 235557228526963771514558402554691603875 (0xB136AC086F236ADBAFEB63EA1FB84DA3)
Complete name : D:\download\Jason.Bourne.2016.BDRip 720p by schultz R.G.Resident.mkv
Format : Matroska
Format version : Version 4 / Version 2
File size : 6.76 GiB
Duration : 2 h 3 min
Overall bit rate : 7 861 kb/s
Encoded date : UTC 2016-11-19 20:59:04
Writing application : mkvmerge v8.9.0 ('Father Daughter') 64bit
Writing library : libebml v1.3.3 + libmatroska v1.4.4

Video
ID : 1
Format : AVC
Format/Info : Advanced Video Codec
Format profile : [email protected]
Format settings, CABAC : Yes
Format settings, ReFrames : 12 frames
Codec ID : V_MPEG4/ISO/AVC
Duration : 2 h 3 min
Bit rate : 5 583 kb/s
Width : 1 280 pixels
Height : 536 pixels
Display aspect ratio : 2.40:1
Frame rate mode : Constant
Frame rate : 23.976 (23976/1000) FPS
Color space : YUV
Chroma subsampling : 4:2:0
Bit depth : 8 bits
Scan type : Progressive
Bits/(Pixel*Frame) : 0.339
Stream size : 4.80 GiB (71%)
Writing library : x264 core 146 r2538 121396c
Encoding settings : cabac=1 / ref=12 / deblock=1:-3:-3 / analyse=0x3:0x113 / me=umh / subme=11 / psy=1 / psy_rd=1.00:0.00 / mixed_ref=1 / me_range=48 / chroma_me=1 / trellis=2 / 8x8dct=1 / cqm=0 / deadzone=21,11 / fast_pskip=0 / chroma_qp_offset=-2 / threads=12 / lookahead_threads=3 / sliced_threads=0 / nr=0 / decimate=0 / interlaced=0 / bluray_compat=0 / constrained_intra=0 / bframes=11 / b_pyramid=2 / b_adapt=2 / b_bias=0 / direct=3 / weightb=1 / open_gop=0 / weightp=2 / keyint=240 / keyint_min=23 / scenecut=40 / intra_refresh=0 / rc_lookahead=40 / rc=2pass / mbtree=1 / bitrate=5583 / ratetol=1.0 / qcomp=0.60 / qpmin=0 / qpmax=69 / qpstep=4 / cplxblur=20.0 / qblur=0.5 / vbv_maxrate=50000 / vbv_bufsize=62500 / nal_hrd=none / filler=0 / ip_ratio=1.40 / aq=1:1.00
Language : English
Default : Yes
Forced : No

Audio #1
ID : 2
Format : DTS
Format/Info : Digital Theater Systems
Mode : 16
Format settings, Endianness : Big
Codec ID : A_DTS
Duration : 2 h 3 min
Bit rate mode : Constant
Bit rate : 768 kb/s
Channel(s) : 6 channels
Channel positions : Front: L C R, Side: L R, LFE
Sampling rate : 48.0 kHz
Frame rate : 93.750 FPS (512 spf)
Bit depth : 24 bits
Compression mode : Lossy
Stream size : 677 MiB (10%)
Language : Russian
Default : Yes
Forced : No

Audio #2
ID : 3
Format : DTS
Format/Info : Digital Theater Systems
Mode : 16
Format settings, Endianness : Big
Codec ID : A_DTS
Duration : 2 h 3 min
Bit rate mode : Constant
Bit rate : 1 509 kb/s
Channel(s) : 6 channels
Channel positions : Front: L C R, Side: L R, LFE
Sampling rate : 48.0 kHz
Frame rate : 93.750 FPS (512 spf)
Bit depth : 24 bits
Compression mode : Lossy
Stream size : 1.30 GiB (19%)
Language : English
Default : No
Forced : No

Text #1
ID : 4
Format : UTF-8
Codec ID : S_TEXT/UTF8
Codec ID/Info : UTF-8 Plain Text
Duration : 1 h 51 min
Bit rate : 2 b/s
Count of elements : 45
Stream size : 1.99 KiB (0%)
Title : Forced
Language : Russian
Default : Yes
Forced : No

Text #2
ID : 5
Format : UTF-8
Codec ID : S_TEXT/UTF8
Codec ID/Info : UTF-8 Plain Text
Duration : 1 h 53 min
Bit rate : 65 b/s
Count of elements : 940
Stream size : 54.6 KiB (0%)
Title : Full
Language : Russian
Default : No
Forced : No

Text #3
ID : 6
Format : UTF-8
Codec ID : S_TEXT/UTF8
Codec ID/Info : UTF-8 Plain Text
Duration : 1 h 51 min
Bit rate : 2 b/s
Count of elements : 45
Stream size : 2.20 KiB (0%)
Title : Forced
Language : Ukrainian
Default : No
Forced : No

Text #4
ID : 7
Format : UTF-8
Codec ID : S_TEXT/UTF8
Codec ID/Info : UTF-8 Plain Text
Duration : 1 h 53 min
Bit rate : 69 b/s
Count of elements : 1140
Stream size : 57.4 KiB (0%)
Title : Full
Language : Ukrainian
Default : No
Forced : No

Text #5
ID : 8
Format : UTF-8
Codec ID : S_TEXT/UTF8
Codec ID/Info : UTF-8 Plain Text
Duration : 1 h 53 min
Bit rate : 37 b/s
Count of elements : 1038
Stream size : 30.9 KiB (0%)
Title : Full
Language : English
Default : No
Forced : No

Text #6
ID : 9
Format : UTF-8
Codec ID : S_TEXT/UTF8
Codec ID/Info : UTF-8 Plain Text
Duration : 1 h 53 min
Bit rate : 43 b/s
Count of elements : 1244
Stream size : 35.7 KiB (0%)
Title : SDH
Language : English
Default : No
Forced : No

Text #7
ID : 10
Format : UTF-8
Codec ID : S_TEXT/UTF8
Codec ID/Info : UTF-8 Plain Text
Duration : 1 h 53 min
Bit rate : 55 b/s
Count of elements : 1244
Stream size : 45.7 KiB (0%)
Title : SDH-COLORED
Language : English
Default : No
Forced : No

Menu
00:00:00.000 : en:Chapter 1
00:04:04.661 : en:Chapter 2
00:08:21.543 : en:Chapter 3
00:13:32.687 : en:Chapter 4
00:18:28.316 : en:Chapter 5
00:24:07.237 : en:Chapter 6
00:29:21.259 : en:Chapter 7
00:36:15.548 : en:Chapter 8
00:42:20.663 : en:Chapter 9
00:48:22.441 : en:Chapter 10
00:55:12.184 : en:Chapter 11
01:01:09.666 : en:Chapter 12
01:08:32.483 : en:Chapter 13
01:16:23.329 : en:Chapter 14
01:24:45.330 : en:Chapter 15
01:29:06.550 : en:Chapter 16
01:37:52.909 : en:Chapter 17
01:44:26.343 : en:Chapter 18
01:48:03.727 : en:Chapter 19
01:54:01.209 : en:Chapter 20





Скачать Джейсон Борн через торрент http://i77.fastpic.ru/big/2016/0417/a7/808a646271c761f7c7d87df3d366b3a7.png Скачать, смотреть онлайн Джейсон Борн бесплантно в хорошем качестве Описание: Мир на грани катастрофы, а значит пришло время ему вернуться. Неаполь, Мюнхен, Нью-Йорк - его имя знают повсюду. Элитный ... 9 10 25
Info! Золотая раздача, скачанное не засчитывается.
Торрент: Зарегистрирован [2016-11-19 21:59] · скачан: 787 раз
Статус: √ проверено
Размер: 6.76 GB
Как cкачать? Как скачать Джейсон Борн через торрент | UTorrent

% Раздел Тема Автор DL S | L
R.G. Resident & PiratVoice - Фильмы, Видео [ 3.34 GB ] Джейсон Борн / Jason Bourne | Дубляж - | BDRip-AVC Хорват Скачать
1 | 0

28-11-2019 20:33  


Отключить вcю реклaмy на сайте, в т.ч. и в плеере онлайн просмотра!

20-11-2016 20:02 Джейсон Борн Скачать торрент  

Качество картинки хорошее. Звук замечательный. Фильм на твердую 4 wink



22-11-2016 09:12 Джейсон Борн Скачать торрент  

средний фильм



27-11-2016 08:00 Джейсон Борн Скачать торрент  

Весь фильм Борн уходит от слежки, убегает и пытается вспомнить прошлое, ВСЁ!!! ни замута, ни закрута, слабый фильм! очень ждал, жаль!



    Дорогой пользователь! Огромная просьба, поблагодарите релизера, оцените раздачу и оставьте свои комментарий, если Вы скачали Джейсон Борн через торрент бесплатно!!
    Комментировать посты могут только пользователи прошедшие не сложную регистрацию
    Показать сообщения:    


    Джейсон Борн через торрент
    Скачать бесплатно Джейсон Борн
    Джейсон Борн скачать торрент
    Джейсон Борн смотреть онлайн
    Cкачать фильм Джейсон Борн бесплатно
    Джейсон Борн скачать торрент в хорошем качестве
    Джейсон Борн смотреть онлайн бесплатно в хорошем качестве
    Вы не можете начинать темы
    Вы не можете отвечать на сообщения
    Вы не можете редактировать свои сообщения
    Вы не можете удалять свои сообщения
    Вы не можете голосовать в опросах
    Вы не можете прикреплять файлы к сообщениям
    Вы можете скачивать файлы
    Джейсон Борн / Jason Bourne [2016, боевик, триллер, BDRip 720p] Дубляж - [BD CEE] R.G.Resident смотреть онлайн, скачать торрент picoco.icu