2 сезон

iTunes

1 сезон

1

iTunes

iTunes

iTunes

1 сезон

RePack

30

ИГРА 18+

pack

ВАЖНО

!!Акция!!

Alien_RageХит недели

RePack

MK11
pack

Забери бонус

RePack

jed

!!Акция!!

Alien_Rage

RePack

fifa19

RePack

Assassins Creed: Odyssey

RePack

NEED FOR SPEED™ PAYBACK

4 сезон

9 сезон

Бесстыжие 9 сезон

Все сериалы

все сериалы на PB.wtf

RePack

FAR CRY 5
  

Пит и его дракон / Pete's Dragon (Дэвид Лоури) [2016, фэнтези, приключения, семейный, BDRip 1080p] [DUB] [Лицензия BD CEE] pb.wtf

Пит и его дракон через торрент pb.wtf

Размер: 9.02 GB | Добавлен: 3 года 11 мес. назад | Торрент скачан:2181 раз
Скачать  

20-11-2016 07:41 Пит и его дракон Скачать торрент  

Пит и его дракон / Pete's Dragon


Год выпуска: 2016
Выпущено: США
Жанр: фэнтези, приключения, семейный
Продолжительность: 01:42:45
Перевод: Профессиональный (полное дублирование) | [Лицензия BD CEE]
Субтитры: English, French, Spanish

Режиссер: Дэвид Лоури

В ролях: Брайс Даллас Ховард, Роберт Редфорд, Оакс Фигли, Уна Лоуренс, Уэс Бентли, Карл Урбан, Исайя Уитлок мл., Маркус Хендерсон, Аарон Джексон, Филип Грив

Описание: В течение многих лет Мистер Мичем забавлял местных детишек сказочными историями о свирепом драконе, обитающим на севере, глубоко в лесах. Для его дочери Грейс все эти истории казались ничем иным как выдумкой, ровно до тех пор, пока она не встретила в лесу маленького мальчика по имени Пит. Пит уже долгое время живет в диком лесу, у него нет ни дома, ни семьи, зато есть замечательный друг — огромный зеленый дракон Эллиот. Грейс решает разгадать историю юного Пита, узнать всю правду о его семье и загадочном драконе, о котором ходит так много слухов и легенд.


Качество: BDRip 1080p
Формат: MKV
Видео кодек: AVC
Видео: V_MPEG4/ISO/AVC, 10.2 Mb/s, 1920x800, 23.976 fps
Аудио: 48 kHz, AC3 Dolby Digital, 6 ch, ~640 kbps [DUB]
Аудио: 48 kHz, DTS, 6 ch, ~1509 kbps [ENG]
General
Unique ID : 181375493781938615118682432054597288177 (0x8873A6435B0BD886B0414012721480F1)
Complete name : G:\DrakoN.Pita.2016.BDRip.1O8Op.mkv
Format : Matroska
Format version : Version 2
File size : 9.02 GiB
Duration : 1h 42mn
Overall bit rate : 12.6 Mbps
Movie name : Pete's Dragon [2016] 720p BluRay - IDE
Encoded date : UTC 2016-11-19 21:14:50
Writing application : mkvmerge v8.3.0 ('Over the Horizon') 64bit
Writing library : libebml v1.3.1 + libmatroska v1.4.2

Video
ID : 1
Format : AVC
Format/Info : Advanced Video Codec
Format profile : High@L4.1
Format settings, CABAC : Yes
Format settings, ReFrames : 5 frames
Codec ID : V_MPEG4/ISO/AVC
Duration : 1h 42mn
Bit rate : 10.2 Mbps
Width : 1 920 pixels
Height : 800 pixels
Display aspect ratio : 2.40:1
Frame rate mode : Constant
Frame rate : 23.976 fps
Color space : YUV
Chroma subsampling : 4:2:0
Bit depth : 8 bits
Scan type : Progressive
Bits/(Pixel*Frame) : 0.276
Stream size : 7.30 GiB (81%)
Writing library : x264 core 148 r2721+55 e19946b t_mod_Custom [8-bit@all X86_64]
Encoding settings : cabac=1 / ref=5 / deblock=1:-3:-3 / analyse=0x3:0x133 / me=umh / subme=10 / psy=1 / fade_compensate=0.00 / psy_rd=1.00:0.00 / mixed_ref=1 / me_range=32 / chroma_me=1 / trellis=2 / 8x8dct=1 / cqm=0 / deadzone=21,11 / fast_pskip=0 / chroma_qp_offset=-2 / threads=8 / lookahead_threads=1 / sliced_threads=0 / nr=0 / decimate=0 / interlaced=0 / bluray_compat=0 / constrained_intra=0 / fgo=0 / bframes=9 / b_pyramid=2 / b_adapt=2 / b_bias=0 / direct=3 / weightb=1 / open_gop=0 / weightp=2 / keyint=250 / keyint_min=23 / scenecut=40 / intra_refresh=0 / rc_lookahead=150 / rc=crf / mbtree=0 / crf=15.9000 / qcomp=0.60 / qpmin=0:0:0 / qpmax=69:69:69 / qpstep=4 / vbv_maxrate=62500 / vbv_bufsize=78125 / crf_max=0.0 / nal_hrd=none / filler=0 / ip_ratio=1.30 / pb_ratio=1.20 / aq=3:0.80 / aq-sensitivity=10.00 / aq-factor=1.00:1.00:1.00 / aq2=0 / aq3=0
Language : English
Default : Yes
Forced : No
Color range : Limited
Matrix coefficients : BT.709

Audio #1
ID : 2
Format : AC-3
Format/Info : Audio Coding 3
Mode extension : CM (complete main)
Format settings, Endianness : Big
Codec ID : A_AC3
Duration : 1h 42mn
Bit rate mode : Constant
Bit rate : 640 Kbps
Channel(s) : 6 channels
Channel positions : Front: L C R, Side: L R, LFE
Sampling rate : 48.0 KHz
Compression mode : Lossy
Stream size : 470 MiB (5%)
Language : Russian
Default : Yes
Forced : Yes

Audio #2
ID : 3
Format : DTS
Format/Info : Digital Theater Systems
Mode : 16
Format settings, Endianness : Big
Codec ID : A_DTS
Duration : 1h 42mn
Bit rate mode : Constant
Bit rate : 1 509 Kbps
Channel(s) : 6 channels
Channel positions : Front: L C R, Side: L R, LFE
Sampling rate : 48.0 KHz
Bit depth : 24 bits
Compression mode : Lossy
Stream size : 1.08 GiB (12%)
Language : English
Default : No
Forced : No

Text #1
ID : 4
Format : UTF-8
Codec ID : S_TEXT/UTF8
Codec ID/Info : UTF-8 Plain Text
Language : English
Default : No
Forced : No

Text #2
ID : 5
Format : UTF-8
Codec ID : S_TEXT/UTF8
Codec ID/Info : UTF-8 Plain Text
Title : SDH
Language : English
Default : No
Forced : No

Text #3
ID : 6
Format : UTF-8
Codec ID : S_TEXT/UTF8
Codec ID/Info : UTF-8 Plain Text
Title : Commentary
Language : English
Default : No
Forced : No

Text #4
ID : 7
Format : UTF-8
Codec ID : S_TEXT/UTF8
Codec ID/Info : UTF-8 Plain Text
Language : French
Default : No
Forced : No

Text #5
ID : 8
Format : UTF-8
Codec ID : S_TEXT/UTF8
Codec ID/Info : UTF-8 Plain Text
Title : Commentary
Language : French
Default : No
Forced : No

Text #6
ID : 9
Format : UTF-8
Codec ID : S_TEXT/UTF8
Codec ID/Info : UTF-8 Plain Text
Language : Spanish
Default : No
Forced : No

Text #7
ID : 10
Format : UTF-8
Codec ID : S_TEXT/UTF8
Codec ID/Info : UTF-8 Plain Text
Title : Commentary
Language : Spanish
Default : No
Forced : No

Menu
00:00:00.000 : en:Family Vacation
00:06:03.989 : en:The Tale of Dragons
00:09:46.669 : en:Playtime with Elliot
00:15:20.128 : en:Forest Ranger Grace
00:21:28.496 : en:A New Friend
00:30:23.447 : en:Hospital Escape
00:36:57.966 : en:Finding Elliot
00:44:03.057 : en:The Meacham Family
00:52:28.062 : en:Replaced
00:56:42.566 : en:The Truth
01:03:13.832 : en:Capture
01:10:07.078 : en:Escape Plan
01:17:17.508 : en:Standoff at the Bridge
01:26:46.034 : en:Together Again
01:32:26.750 : en:Epilogue
01:35:01.362 : en:Credits
pb.wtf



Скачать Пит и его дракон через торрент http://i83.fastpic.ru/big/2016/1116/70/ef0e2e7340842ff177879f18e2ea2f70.jpeg Скачать фильм Пит и его дракон через торрент бесплантно в хорошем качестве Описание: В течение многих лет Мистер Мичем забавлял местных детишек сказочными историями о свирепом драконе, обитающим на севере, глубоко ... 9.8 10 46
Info! Золотая раздача, скачанное не засчитывается.
Торрент: Зарегистрирован [2016-11-20 07:41] · скачан: 2 181 раз
Статус: √ проверено
Размер: 9.02 GB
Как cкачать? Как скачать Пит и его дракон через торрент | qTorrent

28-11-2019 20:33  

Отключить всю рекламу на сайте

26-11-2016 20:31 Пит и его дракон Скачать торрент  

хороший фильм для семейного просмотра pb.wtf



    Дорогой пользователь! Огромная просьба, поблагодарите релизера, оцените раздачу и оставьте свои комментарий, если Вы скачали Пит и его дракон через торрент бесплатно! Внесите свою лепту в развитие PiratBit!
    Комментировать посты могут только пользователи прошедшие не сложную регистрацию
    Показать сообщения:    

    Пит и его дракон через торрент
    Скачать бесплатно Пит и его дракон
    Пит и его дракон скачать торрент
    Пит и его дракон смотреть онлайн
    Cкачать фильм Пит и его дракон бесплатно
    Пит и его дракон скачать торрент в хорошем качестве
    Пит и его дракон смотреть онлайн бесплатно в хорошем качестве


    Вы не можете начинать темы
    Вы не можете отвечать на сообщения
    Вы не можете редактировать свои сообщения
    Вы не можете удалять свои сообщения
    Вы не можете голосовать в опросах
    Вы не можете прикреплять файлы к сообщениям
    Вы можете скачивать файлы