Ссылка на приватное зеркало нашего сайта всего за 1$. Внимание количество ограничено!!!

2 сезон

iTunes

1 сезон

1

2 сезон

2 сезон

iTunes

1 сезон

RePack

30

Ultimate

ВАЖНО

ИГРА 18+

pack

RePack

MK11
pack

Забери бонус

RePack

jed

!!Акция!!

Alien_Rage

RePack

fifa19

RePack

Assassins Creed: Odyssey

RePack

NEED FOR SPEED™ PAYBACK

4 сезон

9 сезон

Бесстыжие 9 сезон

Все сериалы

все сериалы на PB.wtf

RePack

FAR CRY 5
  

Пит и его дракон / Pete's Dragon (Дэвид Лоури) [2016, фэнтези, приключения, семейный, Blu-Ray Remux 1080p] [DUB] [Лицензия BD CEE] + [Sub] (Eng) pb.wtf

Пит и его дракон через торрент pb.wtf

Размер: 26.9 GB | Добавлен: 4 года назад | Торрент скачан:299 раз
Скачать  

20-11-2016 07:56 Пит и его дракон Скачать торрент  

Пит и его дракон / Pete's Dragon


Год выпуска: 2016
Выпущено: США
Жанр: фэнтези, приключения, семейный
Продолжительность: 01:42:45
Перевод: Профессиональный (полное дублирование) | [Лицензия BD CEE]
Субтитры: Английские

Режиссер: Дэвид Лоури

В ролях: Брайс Даллас Ховард, Роберт Редфорд, Оакс Фигли, Уна Лоуренс, Уэс Бентли, Карл Урбан, Исайя Уитлок мл., Маркус Хендерсон, Аарон Джексон, Филип Грив

Описание: В течение многих лет Мистер Мичем забавлял местных детишек сказочными историями о свирепом драконе, обитающим на севере, глубоко в лесах. Для его дочери Грейс все эти истории казались ничем иным как выдумкой, ровно до тех пор, пока она не встретила в лесу маленького мальчика по имени Пит. Пит уже долгое время живет в диком лесу, у него нет ни дома, ни семьи, зато есть замечательный друг — огромный зеленый дракон Эллиот. Грейс решает разгадать историю юного Пита, узнать всю правду о его семье и загадочном драконе, о котором ходит так много слухов и легенд.


Качество: Blu-Ray Remux 1080p
Формат: MKV
Видео кодек: AVC
Видео: V_MPEG4/ISO/AVC, 32.4 Mb/s, 1920x1080, 23.976 fps
Аудио: 48 kHz, AC3 Dolby Digital, 6 ch, ~640 kbps [DUB]
Аудио: 48 kHz, DTS-HD MA, 8 ch, ~4490 kbps [ENG]
General
Unique ID : 188486964674422806848017587296009653010 (0x8DCD44D934F1F228A657C68A10370B12)
Complete name : G:\Video\Pete's.Dragon.2016.BDREMUX.1080p.ExKinoRay.mkv
Format : Matroska
Format version : Version 4 / Version 2
File size : 26.9 GiB
Duration : 1 h 42 min
Overall bit rate mode : Variable
Overall bit rate : 37.5 Mb/s
Movie name : Pete's.Dragon.2016 build by ***селезень***
Encoded date : UTC 2016-11-20 00:32:28
Writing application : mkvmerge v8.3.0 ('Over the Horizon') 64bit
Writing library : libebml v1.3.1 + libmatroska v1.4.2

Video
ID : 1
Format : AVC
Format/Info : Advanced Video Codec
Format profile : High@L4.1
Format settings, CABAC : Yes
Format settings, ReFrames : 4 frames
Codec ID : V_MPEG4/ISO/AVC
Duration : 1 h 42 min
Bit rate mode : Variable
Bit rate : 32.4 Mb/s
Maximum bit rate : 35.0 Mb/s
Width : 1 920 pixels
Height : 1 080 pixels
Display aspect ratio : 16:9
Frame rate mode : Constant
Frame rate : 23.976 (24000/1001) FPS
Color space : YUV
Chroma subsampling : 4:2:0
Bit depth : 8 bits
Scan type : Progressive
Bits/(Pixel*Frame) : 0.651
Stream size : 23.2 GiB (86%)
Title : Pete's.Dragon.2016 build by ***селезень***
Language : English
Default : Yes
Forced : No

Audio #1
ID : 2
Format : AC-3
Format/Info : Audio Coding 3
Mode extension : CM (complete main)
Format settings, Endianness : Big
Codec ID : A_AC3
Duration : 1 h 42 min
Bit rate mode : Constant
Bit rate : 640 kb/s
Channel(s) : 6 channels
Channel positions : Front: L C R, Side: L R, LFE
Sampling rate : 48.0 kHz
Frame rate : 31.250 FPS (1536 spf)
Bit depth : 16 bits
Compression mode : Lossy
Stream size : 470 MiB (2%)
Title : Dub
Language : Russian
Default : Yes
Forced : No

Audio #2
ID : 3
Format : DTS
Format/Info : Digital Theater Systems
Format profile : MA / Core
Mode : 16
Format settings, Endianness : Big
Codec ID : A_DTS
Duration : 1 h 42 min
Bit rate mode : Variable / Constant
Bit rate : 4 490 kb/s / 1 509 kb/s
Channel(s) : 8 channels / 6 channels
Channel positions : Front: L C R, Side: L R, Back: L R, LFE / Front: L C R, Side: L R, LFE
Sampling rate : 48.0 kHz
Frame rate : 93.750 FPS (512 spf)
Bit depth : 24 bits
Compression mode : Lossless / Lossy
Stream size : 3.22 GiB (12%)
Title : Original
Language : English
Default : No
Forced : No

Text #1
ID : 4
Format : UTF-8
Codec ID : S_TEXT/UTF8
Codec ID/Info : UTF-8 Plain Text
Duration : 1 h 39 min
Bit rate : 38 b/s
Count of elements : 1030
Stream size : 27.6 KiB (0%)
Title : Full
Language : English
Default : No
Forced : No

Text #2
ID : 5
Format : UTF-8
Codec ID : S_TEXT/UTF8
Codec ID/Info : UTF-8 Plain Text
Duration : 1 h 41 min
Bit rate : 42 b/s
Count of elements : 1231
Stream size : 31.8 KiB (0%)
Title : SDH
Language : English
Default : No
Forced : No

Menu
00:00:00.000 : en:Family Vacation
00:06:03.989 : en:The Tale of Dragons
00:09:46.669 : en:Playtime with Elliot
00:15:20.128 : en:Forest Ranger Grace
00:21:28.496 : en:A New Friend
00:30:23.447 : en:Hospital Escape
00:36:57.966 : en:Finding Elliot
00:44:03.057 : en:The Meacham Family
00:52:28.062 : en:Replaced
00:56:42.566 : en:The Truth
01:03:13.832 : en:Capture
01:10:07.078 : en:Escape Plan
01:17:17.508 : en:Standoff at the Bridge
01:26:46.034 : en:Together Again
01:32:26.750 : en:Epilogue
01:35:01.362 : en:Credits
pb.wtf



Скачать Пит и его дракон через торрент http://i83.fastpic.ru/big/2016/1116/70/ef0e2e7340842ff177879f18e2ea2f70.jpeg Скачать фильм Пит и его дракон через торрент бесплантно в хорошем качестве Описание: В течение многих лет Мистер Мичем забавлял местных детишек сказочными историями о свирепом драконе, обитающим на севере, глубоко ... 10 10 9
Info! Золотая раздача, скачанное не засчитывается.
Торрент: Зарегистрирован [2016-11-20 07:56] · скачан: 299 раз
Статус: √ проверено
Размер: 26.9 GB
Как cкачать? Как скачать Пит и его дракон через торрент | qTorrent

28-11-2019 20:33  

Отключить всю рекламу на сайте

20-11-2016 07:59 Пит и его дракон Скачать торрент  

Цитата:

Сэмпл с BDRip 1080 для оценки качества звука

pb.wtf



    Дорогой пользователь! Огромная просьба, поблагодарите релизера, оцените раздачу и оставьте свои комментарий, если Вы скачали Пит и его дракон через торрент бесплатно! Внесите свою лепту в развитие PiratBit!
    Комментировать посты могут только пользователи прошедшие не сложную регистрацию
    Показать сообщения:    

    Пит и его дракон через торрент
    Скачать бесплатно Пит и его дракон
    Пит и его дракон скачать торрент
    Пит и его дракон смотреть онлайн
    Cкачать фильм Пит и его дракон бесплатно
    Пит и его дракон скачать торрент в хорошем качестве
    Пит и его дракон смотреть онлайн бесплатно в хорошем качестве


    Вы не можете начинать темы
    Вы не можете отвечать на сообщения
    Вы не можете редактировать свои сообщения
    Вы не можете удалять свои сообщения
    Вы не можете голосовать в опросах
    Вы не можете прикреплять файлы к сообщениям
    Вы можете скачивать файлы