Всегда рабочее зеркало просто перед .vidak.icu напиши любое слово или цифру, Пример http://zct.vidak.icu

>

7.4

iTunes

7.4

2 сезон

6.6

iTunes

1

7.4

2 сезон

7.2

iTunes

6.0

MVO

13

6.1

iTunes

8.3

Пиратка

30

ULTIMATE

pack

9.9

Лицензия

ВАЖНО

ИГРА 18+

pack

7.3

RePack

MK11

7.7

RePack

jed

7.8

RePack

fifa19

8.5

RePack

RDR2

RePack

NEED FOR SPEED™ PAYBACK

1 сезон

9 сезон

Бесстыжие 9 сезон

Все сериалы

все сериалы на PB.wtf

RePack

FAR CRY 5

Anonymous, добрый день, мы катастрофически не успеваем собрать деньги на оплату серверов, помогите нам пожалуйста 5,10,15р., для нас важна любая помощь . В качестве благодарности мы отключим Вам всю рекламу на сайте (укажите свой ник в строку Ваше имя)!

×
  
Magnet ссылка

Изнанка долины кукол / Beyond the Valley of the Dolls (Расс Мейер) [1970, драма, комедия, музыка, BDRip 1080p by msltel] AVO pb.wtf

Изнанка долины кукол через торрент pb.wtf

Размер: 11.17 GB | Добавлен: 5 лет 2 мес. назад | Торрент скачан:3 раза
Смотреть онлайн Изнанка долины кукол | Скачать    Ребята, помогите собрать деньги на оплату серверов!!!

20-11-2016 08:08 Изнанка долины кукол Скачать торрент  

Название: Изнанка долины кукол
Оригинальное название: Beyond the Valley of the Dolls
Год выпуска: 1970
Страна: США
Жанр: драма, комедия, музыка
Продолжительность: 01:49:06
Перевод: авторский

Режиссёр: Расс Мейер

В ролях: Долли Рид, Синтия Майерс, Марсия МакБрум, Джон Лазар, Майкл Блоджет, Дэвид Гуриан, Эди Уильямс, Эрика Гэвин, Филлис Дэвис, Харрисон Пейдж

Описание: Три сладкоголосые певички, устав от пуритански настроенной публики провинциальной Америки, отправляютс в Голливуд, или иначе в «Долину кукол»...



Качество: BDRip 1080p Сравнение с исходником
Формат: MKV
Видео: MPEG-4 AVC, 14.3 Mбит/с, 1920x810, 23,976 кадра/с
Аудио 1: русский, AC3, 192 kbps, 2 ch, 48 kHz [авторский, Антон Алексеев]
Аудио 2: английский, AC3, 192 kbps, 1 ch, 48 kHz [оригинал]
Субтитры: английские
Общее
Уникальный идентификатор : 181850757652392650476273559154113116011 (0x88CF2E94BFAA566A8D9E793D1627F76B)
Полное имя : D:\Video\За пределами долины кукол.1970.BDRip.1080p by msltel.mkv
Формат : Matroska
Версия формата : Version 4 / Version 2
Размер файла : 11,2 Гбайт
Продолжительность : 1 ч. 49 м.
Общий поток : 14,7 Мбит/сек
Название фильма : Rip by msltel
Дата кодирования : UTC 2016-11-20 02:52:48
Программа кодирования : mkvmerge v8.2.0 ('World of Adventure') 64bit
Библиотека кодирования : libebml v1.3.1 + libmatroska v1.4.2

Видео
Идентификатор : 1
Формат : AVC
Формат/Информация : Advanced Video Codec
Профиль формата : High@L4.1
Параметр CABAC формата : Да
Параметр ReFrames формата : 4 кадра
Идентификатор кодека : V_MPEG4/ISO/AVC
Продолжительность : 1 ч. 49 м.
Битрейт : 14,3 Мбит/сек
Ширина : 1920 пикселей
Высота : 810 пикселей
Соотношение сторон : 2,40:1
Режим частоты кадров : Постоянный
Частота кадров : 23,976 (24000/1001) кадра/сек
Цветовое пространство : YUV
Субдискретизация насыщенности : 4:2:0
Битовая глубина : 8 бит
Тип развёртки : Прогрессивная
Бит/(Пиксели*Кадры) : 0.383
Размер потока : 10,9 Гбайт (97%)
Библиотека кодирования : x264 core 146 r2538 121396c
Настройки программы : cabac=1 / ref=4 / deblock=1:-3:-3 / analyse=0x3:0x113 / me=umh / subme=9 / psy=1 / psy_rd=1.00:0.15 / mixed_ref=1 / me_range=32 / chroma_me=1 / trellis=1 / 8x8dct=1 / cqm=0 / deadzone=21,11 / fast_pskip=0 / chroma_qp_offset=-3 / threads=6 / lookahead_threads=1 / sliced_threads=0 / nr=0 / decimate=1 / interlaced=0 / bluray_compat=0 / constrained_intra=0 / bframes=10 / b_pyramid=2 / b_adapt=2 / b_bias=0 / direct=1 / weightb=1 / open_gop=0 / weightp=2 / keyint=230 / keyint_min=23 / scenecut=40 / intra_refresh=0 / rc_lookahead=40 / rc=crf / mbtree=0 / crf=18.3 / qcomp=0.60 / qpmin=0 / qpmax=69 / qpstep=4 / vbv_maxrate=50000 / vbv_bufsize=62500 / crf_max=0.0 / nal_hrd=none / filler=0 / ip_ratio=1.40 / pb_ratio=1.30 / aq=1:1.00
Язык : English
Default : Да
Forced : Нет

Аудио #1
Идентификатор : 2
Формат : AC-3
Формат/Информация : Audio Coding 3
Расширение режима : CM (complete main)
Параметр Endianness формата : Big
Идентификатор кодека : A_AC3
Продолжительность : 1 ч. 49 м.
Вид битрейта : Постоянный
Битрейт : 192 Кбит/сек
Каналы : 2 канала
Расположение каналов : Front: L R
Частота : 48,0 КГц
Частота кадров : 31,250 кадров/сек (1536 spf)
Метод сжатия : С потерями
Размер потока : 150 Мбайт (1%)
Заголовок : AVO (Антон Алексеев)
Язык : Russian
Default : Да
Forced : Нет

Аудио #2
Идентификатор : 3
Формат : AC-3
Формат/Информация : Audio Coding 3
Расширение режима : CM (complete main)
Параметр Endianness формата : Big
Идентификатор кодека : A_AC3
Продолжительность : 1 ч. 49 м.
Вид битрейта : Постоянный
Битрейт : 192 Кбит/сек
Каналы : 1 канал
Расположение каналов : Front: C
Частота : 48,0 КГц
Частота кадров : 31,250 кадров/сек (1536 spf)
Метод сжатия : С потерями
Размер потока : 150 Мбайт (1%)
Заголовок : original
Язык : English
Default : Нет
Forced : Нет

Текст
Идентификатор : 4
Формат : UTF-8
Идентификатор кодека : S_TEXT/UTF8
Идентификатор кодека/Информация : UTF-8 Plain Text
Продолжительность : 1 ч. 43 м.
Битрейт : 61 бит/сек
Count of elements : 1040
Размер потока : 46,9 Кбайт (0%)
Заголовок : английские
Язык : English
Default : Нет
Forced : Нет

Меню
00:00:00.000 : en:00:00:00.000
00:09:00.416 : en:00:09:00.416
00:19:40.250 : en:00:19:40.250
00:26:45.625 : en:00:26:45.625
00:35:02.208 : en:00:35:02.208
00:40:27.666 : en:00:40:27.666
00:51:01.541 : en:00:51:01.541
00:57:24.833 : en:00:57:24.833
01:04:47.125 : en:01:04:47.125
01:14:17.832 : en:01:14:17.832
01:24:01.707 : en:01:24:01.707
01:35:19.375 : en:01:35:19.375

МОИ РЕЛИЗЫ
ВКОНТАКТЕ
pb.wtf



Скачать Изнанка долины кукол через торрент http://s017.radikal.ru/i409/1611/95/c2e74b5a8a01.jpg Скачать, смотреть онлайн Изнанка долины кукол бесплантно в хорошем качестве Описание: Три сладкоголосые певички, устав от пуритански настроенной публики провинциальной Америки, отправляютс в Голливуд, или иначе в ... 10 10 2
Info! Золотая раздача, скачанное не засчитывается.
Торрент: Зарегистрирован [2016-11-20 08:08] · скачан: 3 раз
Статус: √ проверено
Размер: 11.17 GB
Как cкачать? Как скачать Изнанка долины кукол через торрент | UTorrent

% Раздел Тема Автор DL S | L
Фильмы с авторской озвучкой [ 3.9 GB ] Изнанка долины кукол / Beyond the Valley of the Dolls [1970 музыка BDRip 720p by msltel] AVO msltel Скачать
1 | 0

28-11-2019 20:33  

Отключить всю рекламу на сайте

    Дорогой пользователь! Огромная просьба, поблагодарите релизера, оцените раздачу и оставьте свои комментарий, если Вы скачали Изнанка долины кукол через торрент бесплатно!
    Комментировать посты могут только пользователи прошедшие не сложную регистрацию
    Показать сообщения:    

    Изнанка долины кукол через торрент
    Скачать бесплатно Изнанка долины кукол
    Изнанка долины кукол скачать торрент
    Изнанка долины кукол смотреть онлайн
    Cкачать фильм Изнанка долины кукол бесплатно
    Изнанка долины кукол скачать торрент в хорошем качестве
    Изнанка долины кукол смотреть онлайн бесплатно в хорошем качестве


    Вы не можете начинать темы
    Вы не можете отвечать на сообщения
    Вы не можете редактировать свои сообщения
    Вы не можете удалять свои сообщения
    Вы не можете голосовать в опросах
    Вы не можете прикреплять файлы к сообщениям
    Вы можете скачивать файлы