Ссылка на приватное зеркало нашего сайта всего за 1$. Внимание количество ограничено!!!

2 сезон

iTunes

1 сезон

1

2 сезон

2 сезон

iTunes

1 сезон

RePack

30

Ultimate

ВАЖНО

ИГРА 18+

pack

RePack

MK11
pack

Забери бонус

RePack

jed

!!Акция!!

Alien_Rage

RePack

fifa19

RePack

Assassins Creed: Odyssey

RePack

NEED FOR SPEED™ PAYBACK

4 сезон

9 сезон

Бесстыжие 9 сезон

Все сериалы

все сериалы на PB.wtf

RePack

FAR CRY 5
  

В поисках Бобби Фишера (Выбор игры) / Searching for Bobby Fischer (Стивен Зэйллиан) [1993 г., драма, биография, WEBRip] DVO, MVO pb.wtf

В поисках Бобби Фишера через торрент pb.wtf

Размер: 2.18 GB | Добавлен: 4 года назад | Торрент скачан:12 раз
Скачать  

20-11-2016 10:23 В поисках Бобби Фишера Скачать торрент  

В поисках Бобби Фишера (Выбор игры) / Searching for Bobby Fischer
Год выпуска: 1993
Страна: США
Жанр: драма, биография
Продолжительность: 01:49:59
Перевод: Профессиональный многоголосый, профессиональный двухголосый

Режиссер: Стивен Зэйллиан

Премьера в мире: 11 августа 1993

rating

В ролях: Макс Померанц, Джо Мантенья, Джоан Аллен, Бен Кингсли, Лоуренс Фишборн, Майкл Ниренберг, Роберт Стивенс (I), Дэвид Пэймер, Хэл Скардино, Васек Симек, Уильям Х. Мэйси, Дэн Хедайя, Лора Линни, Энтони Хилд, Стивен Рандаццо, Челси Мур, Джош Мостел, Джош Корнблат, Тони Шэлоуб, Остин Пендлтон, Том МакГауэн, Она Флетчер, Камран Ширази, Тони Де Сантис, Джон Буржуа, Мария Рикосса, Эндрю Сарделла, Натан Картер, Николас Тэйлор

Описание: Джош Вайцкен, как и все американские мальчишки учится в колледже и обожает бейсбол. Но все меняется в тот день, когда он впервые в жизни оказывается за шахматной доской. Ребенок сразу выигрывает партию у своего отца. Вскоре становится очевидно, что у Джоша просто уникальные способности. Родители юного гения, окрыленные успехами сына, нанимают ему известного шахматного преподавателя Брюса Пандолфини в надежде, что он сделает из их мальчика второго Бобби Фишера.

Качество: WEBRip
Формат: AVI
Видео кодек: XviD
Аудио кодек: AC3
Видео: XviD, 2182 Кбит/с, 720x400, 23.976 кадр/с
Аудио#1: AC3, 6 ch, 448 Кбит/с, 48 kHz | Профессиональный двухголосый (НТВ+)
Аудио#2: AC3, 2 ch, 192 Кбит/с, 48 kHz | Профессиональный многоголосый (Премьер Видео Фильм)
Релиз от: Koenig
Общее
Полное имя : Searching.for.Bobby.Fischer.1993.WEBRip.avi
Формат : AVI
Формат/Информация : Audio Video Interleave
Профиль формата : OpenDML
Размер файла : 2,18 Гбайт
Продолжительность : 1 ч. 49 м.
Общий поток : 2840 Кбит/сек
Программа кодирования : VirtualDubMod 1.5.10.2 (build 2540/release)
Библиотека кодирования : VirtualDubMod build 2540/release

Видео
Идентификатор : 0
Формат : MPEG-4 Visual
Профиль формата : Advanced Simple@L5
Параметр BVOP формата : 1
Параметр QPel формата : Нет
Параметр GMC формата : Без точки перехода
Параметр матрицы формата : Выборочная
Идентификатор кодека : XVID
Идентификатор кодека/Подсказка : XviD
Продолжительность : 1 ч. 49 м.
Битрейт : 2182 Кбит/сек
Ширина : 720 пикселей
Высота : 400 пикселей
Соотношение сторон : 16:9
Частота кадров : 23,976 (24000/1001) кадра/сек
Частота кадров в оригинале : 23,976 (23976/1000) кадра/сек
Цветовое пространство : YUV
Субдискретизация насыщенности : 4:2:0
Битовая глубина : 8 бит
Тип развёртки : Прогрессивная
Метод сжатия : С потерями
Бит/(Пиксели*Кадры) : 0.316
Размер потока : 1,68 Гбайт (77%)
Библиотека кодирования : XviD 73

Аудио #1
Идентификатор : 1
Формат : AC-3
Формат/Информация : Audio Coding 3
Расширение режима : CM (complete main)
Параметр Endianness формата : Big
Идентификатор кодека : 2000
Продолжительность : 1 ч. 49 м.
Вид битрейта : Постоянный
Битрейт : 448 Кбит/сек
Каналы : 6 каналов
Расположение каналов : Front: L C R, Side: L R, LFE
Частота : 48,0 КГц
Частота кадров : 31,250 кадров/сек (1536 spf)
Битовая глубина : 16 бит
Метод сжатия : С потерями
Размер потока : 352 Мбайт (16%)
Выравнивание : Разделение по промежуткам
Продолжительность промежутка : 42 мс. (1,00 видеокадр)
Время предзагрузки промежутка : 500 мс.

Аудио #2
Идентификатор : 2
Формат : AC-3
Формат/Информация : Audio Coding 3
Расширение режима : CM (complete main)
Параметр Endianness формата : Big
Идентификатор кодека : 2000
Продолжительность : 1 ч. 49 м.
Вид битрейта : Постоянный
Битрейт : 192 Кбит/сек
Каналы : 2 канала
Расположение каналов : Front: L R
Частота : 48,0 КГц
Частота кадров : 31,250 кадров/сек (1536 spf)
Битовая глубина : 16 бит
Метод сжатия : С потерями
Размер потока : 151 Мбайт (7%)
Выравнивание : Разделение по промежуткам
Продолжительность промежутка : 42 мс. (1,00 видеокадр)
Время предзагрузки промежутка : 500 мс.

pb.wtf



Скачать В поисках Бобби Фишера через торрент http://i84.fastpic.ru/big/2016/1120/7c/55731da91196cb85fe299326a59c117c.jpg Скачать фильм В поисках Бобби Фишера через торрент бесплантно в хорошем качестве Описание: Джош Вайцкен, как и все американские мальчишки учится в колледже и обожает бейсбол. Но все меняется в тот день, когда он впервые ... 10 10 1
Info! Золотая раздача, скачанное не засчитывается.
Торрент: Зарегистрирован [2016-11-20 10:23] · скачан: 12 раз
Статус: √ проверено
Размер: 2.18 GB
Как cкачать? Как скачать В поисках Бобби Фишера через торрент | qTorrent

28-11-2019 20:33  

Отключить всю рекламу на сайте

    Дорогой пользователь! Огромная просьба, поблагодарите релизера, оцените раздачу и оставьте свои комментарий, если Вы скачали В поисках Бобби Фишера через торрент бесплатно! Внесите свою лепту в развитие PiratBit!
    Комментировать посты могут только пользователи прошедшие не сложную регистрацию
    Показать сообщения:    

    В поисках Бобби Фишера через торрент
    Скачать бесплатно В поисках Бобби Фишера
    В поисках Бобби Фишера скачать торрент
    В поисках Бобби Фишера смотреть онлайн
    Cкачать фильм В поисках Бобби Фишера бесплатно
    В поисках Бобби Фишера скачать торрент в хорошем качестве
    В поисках Бобби Фишера смотреть онлайн бесплатно в хорошем качестве


    Вы не можете начинать темы
    Вы не можете отвечать на сообщения
    Вы не можете редактировать свои сообщения
    Вы не можете удалять свои сообщения
    Вы не можете голосовать в опросах
    Вы не можете прикреплять файлы к сообщениям
    Вы можете скачивать файлы