новый адрес
Ссылка на приватное зеркало всего за 1$. Внимание количество ограничено!!!

iTunes

1+1

iTunes

мы

WEB-DL

1

iTunes

Чернобыль

iTunes

Ральф против интернета

Лицензия

ПШазам

Лицензия

Оно 2

Лицензия

30
pack

Вам бонус

ВАЖНО

!!Акция!!

Alien_RageХит недели

RePack

Resident Evil 21

ИГРА 18+

pack

RePack

jed

!!Акция!!

Alien_Rage

RePack

fifa19

RePack

Assassins Creed: Odyssey

RePack

NEED FOR SPEED™ PAYBACK

3 сезон

9 сезон

Бесстыжие 9 сезон

Все сериалы

все сериалы на PB.wtf

RePack

FAR CRY 5
Ребята, катастрофически не хватает 1900р. для оплаты серверов за Октябрь (всвязи с блокировками трафик упал в 3 раза), 1-2р., выручайте.
  

Иерусалим / O Jerusalem (Эли Шураки) [2006 г., драма, HDRip] MVO pb.wtf

Иерусалим через торрент pb.wtf

Размер: 1.45 GB | Добавлен: 3 года назад | Торрент скачан:29 раз
Скачать  

20-11-2016 15:00 Иерусалим Скачать торрент  

Иерусалим / O Jerusalem
Год выпуска: 2006
Страна: США, Франция, Великобритания, Италия, Израиль, Греция
Жанр: драма
Продолжительность: 01:41:31
Перевод: Профессиональный многоголосый (Первый ТВЧ)

Режиссер: Эли Шураки

rating

В ролях: Джей Джей Филд, Саид Тагмауи, Мария Папас, Патрик Брюэль, Иэн Холм, Това Фелдшух, Мел Райдо, Сесиль Кассель, Мхаири Стинбок, Том Конти, Питер Поликарпу, Даниэль Лунд, Анатол Юсеф, Джейми Хардинг, Лаура Вейссбеккер, Роберт Атико, Дэниэл Бен Зеноу, Эли Шураки, Кристиан Хиллман, Джон Ховарт, Доминик Джефкотт, Райан Крюгер

Описание: В Нью-Йорке живут два молодых человека: американский еврей Бобби Гольдман и араб из Иерусалима Саид Шаин. Атмосфера всеобщего ликования по поводу окончания Второй мировой войны делает их друзьями, и в свои 27 лет они разделяют одни и те же принципы и верят в одни и те же идеи. Однако окончание мировой войны не всегда означает наступление мира во всем мире. 27 ноября 1947 года представители 57 стран-членов Организации Объединенных Наций голосуют в пользу раздела Палестины и создания госудаства Израиль. Узнав о том, что на Земле обетованной будет строиться новый мир, друзья решают отправиться туда….

Качество: HDRip
Формат: AVI
Видео кодек: XviD
Аудио кодек: AC3
Видео: XviD, 1844 Кбит/с, 720x304, 23.976 кадр/с
Аудио: AC3, 2 ch, 192 Кбит/с, 48 kHz
Релиз от: Koenig
Общее
Полное имя : erusalem.2006.HDRip.avi
Формат : AVI
Формат/Информация : Audio Video Interleave
Размер файла : 1,45 Гбайт
Продолжительность : 1 ч. 41 м.
Общий поток : 2045 Кбит/сек
Программа кодирования : VirtualDubMod 1.5.10.2 (build 2540/release)
Библиотека кодирования : VirtualDubMod build 2540/release

Видео
Идентификатор : 0
Формат : MPEG-4 Visual
Профиль формата : Advanced Simple@L5
Параметр BVOP формата : 1
Параметр QPel формата : Нет
Параметр GMC формата : Без точки перехода
Параметр матрицы формата : Выборочная
Идентификатор кодека : XVID
Идентификатор кодека/Подсказка : XviD
Продолжительность : 1 ч. 41 м.
Битрейт : 1844 Кбит/сек
Ширина : 720 пикселей
Высота : 304 пикселя
Соотношение сторон : 2,35:1
Частота кадров : 23,976 (24000/1001) кадра/сек
Частота кадров в оригинале : 23,976 (23976/1000) кадра/сек
Цветовое пространство : YUV
Субдискретизация насыщенности : 4:2:0
Битовая глубина : 8 бит
Тип развёртки : Прогрессивная
Метод сжатия : С потерями
Бит/(Пиксели*Кадры) : 0.351
Размер потока : 1,31 Гбайт (90%)
Библиотека кодирования : XviD 73

Аудио
Идентификатор : 1
Формат : AC-3
Формат/Информация : Audio Coding 3
Расширение режима : CM (complete main)
Параметр Endianness формата : Big
Идентификатор кодека : 2000
Продолжительность : 1 ч. 41 м.
Вид битрейта : Постоянный
Битрейт : 192 Кбит/сек
Каналы : 2 канала
Расположение каналов : Front: L R
Частота : 48,0 КГц
Частота кадров : 31,250 кадров/сек (1536 spf)
Битовая глубина : 16 бит
Метод сжатия : С потерями
Размер потока : 139 Мбайт (9%)
Выравнивание : Разделение по промежуткам
Продолжительность промежутка : 42 мс. (1,00 видеокадр)
Время предзагрузки промежутка : 500 мс.

pb.wtf



Скачать Иерусалим через торрент http://i84.fastpic.ru/big/2016/1120/51/e00ee8ea5aa17bbc41283e88ec640651.jpg Скачать фильм Иерусалим через торрент бесплантно в хорошем качестве Описание: В Нью-Йорке живут два молодых человека: американский еврей Бобби Гольдман и араб из Иерусалима Саид Шаин. Атмосфера всеобщего ... 10 10 1
Торрент: Зарегистрирован [2016-11-20 15:00] · скачан: 29 раз
Статус: √ проверено
Размер: 1.45 GB
Как cкачать? Как скачать Иерусалим через торрент | qTorrent

% Раздел Тема Автор DL S | L
Фильмы [HD 720p, 1080p] (Хороший звук DUB, MVO) [ 4.89 GB ] Иерусалим / O Jerusalem [2006 BDRip 720p] MVO koenig Скачать
1 | 0

28-11-2019 20:33  

Отключить всю рекламу на сайте

    Дорогой пользователь! Огромная просьба, поблагодарите релизера, оцените раздачу и оставьте свои комментарий, если Вы скачали Иерусалим через торрент бесплатно! Внесите свою лепту в развитие PiratBit!
    Комментировать посты могут только пользователи прошедшие не сложную регистрацию
    Показать сообщения:    

    Иерусалим через торрент
    Скачать бесплатно Иерусалим
    Иерусалим скачать торрент
    Иерусалим смотреть онлайн
    Cкачать фильм Иерусалим бесплатно
    Иерусалим скачать торрент в хорошем качестве
    Иерусалим смотреть онлайн бесплатно в хорошем качестве


    Вы не можете начинать темы
    Вы не можете отвечать на сообщения
    Вы не можете редактировать свои сообщения
    Вы не можете удалять свои сообщения
    Вы не можете голосовать в опросах
    Вы не можете прикреплять файлы к сообщениям
    Вы можете скачивать файлы