Ссылка на приватное зеркало нашего сайта всего за 1$. Внимание количество ограничено!!!

2 сезон

iTunes

1 сезон

1

iTunes

iTunes

iTunes

1 сезон

RePack

30

ИГРА 18+

pack

ВАЖНО

!!Акция!!

Alien_RageХит недели

RePack

MK11
pack

Забери бонус

RePack

jed

!!Акция!!

Alien_Rage

RePack

fifa19

RePack

Assassins Creed: Odyssey

RePack

NEED FOR SPEED™ PAYBACK

4 сезон

9 сезон

Бесстыжие 9 сезон

Все сериалы

все сериалы на PB.wtf

RePack

FAR CRY 5
  

Замуж после всех / 1-4 серии из 4 (Ашот Кещян) [2016 г., мелодрама, детектив, WEB-DLRip] pb.wtf

Замуж после всех через торрент pb.wtf

Размер: 2.32 GB | Добавлен: 3 года 11 мес. назад | Торрент скачан:83 раза
Скачать  

21-11-2016 11:18 Замуж после всех Скачать торрент  

Замуж после всех
Год выпуска: 2016
Страна: Россия
Жанр: мелодрама, детектив
Продолжительность: 4 x ~ 00:45:00
Перевод: Не требуется Русский
Субтитры: отсутствуют

Режиссер: Ашот Кещян



В ролях:

Эльвира Болгова, Ольга Морозова, Алексей Зубков, Ксения Николаева, Оксана Коляденко, Александр Ярема, Антонина Макарчук, Яков Кучеревский, Елизавета Зайцева (II), Андрей Исаенко, Сергей Радченко (III)

Описание:

Лене Крапивиной далеко за тридцать, и она отчаянно хочет замуж, но очередной жених сбегает из-под венца. Уже несколько попыток Лены построить семью заканчивались фатально и нелепо. Подруга убеждает Лену, что на ней лежит какое-то заклятье. Героиня обращается к гадалке и выясняет, что заклятье действительно есть. Это своеобразная кара за то, что в прошлом она невольно разрушила отношения трем девушкам. Теперь, чтобы избавиться от заклятья, ей нужно сделать этих девушек счастливыми – помочь найти пару. Лена берется за решение этих трех задач. Но для начала девушек нужно разыскать...

Качество: WEB-DLRip
Формат: AVI
Видео кодек: XviD
Аудио кодек: AC3

Видео: 720x400 (1.80:1), 25 fps, XviD build 73 ~ 1534 kbps avg, 0.218 bit/pixel
Аудио#1: 48 kHz, AC3 Dolby Digital, 2/0 (L,R) ch, ~192 kbps
Общее
Полное имя : D:\01.Zamuz.posle.vsex.2016.WEB-DLRip.Files-x.avi
Формат : AVI
Формат/Информация : Audio Video Interleave
Размер файла : 595 Мбайт
Продолжительность : 47 м. 55 с.
Общий поток : 1737 Кбит/сек
Программа кодирования : VirtualDubMod 1.5.10.3 | www.virtualdub-fr.org || (build 2550/release)
Библиотека кодирования : VirtualDubMod build 2550/release

Видео
Идентификатор : 0
Формат : MPEG-4 Visual
Профиль формата : Advanced Simple@L5
Параметр BVOP формата : 1
Параметр QPel формата : Нет
Параметр GMC формата : Без точки перехода
Параметр матрицы формата : Выборочная
Идентификатор кодека : XVID
Идентификатор кодека/Подсказка : XviD
Продолжительность : 47 м. 55 с.
Битрейт : 1535 Кбит/сек
Ширина : 720 пикселей
Высота : 400 пикселей
Соотношение сторон : 16:9
Частота кадров : 25,000 кадров/сек
Цветовое пространство : YUV
Субдискретизация насыщенности : 4:2:0
Битовая глубина : 8 бит
Тип развёртки : Прогрессивная
Метод сжатия : С потерями
Бит/(Пиксели*Кадры) : 0.213
Размер потока : 526 Мбайт (88%)
Библиотека кодирования : XviD 73

Аудио
Идентификатор : 1
Формат : AC-3
Формат/Информация : Audio Coding 3
Расширение режима : CM (complete main)
Параметр Endianness формата : Big
Идентификатор кодека : 2000
Продолжительность : 47 м. 55 с.
Вид битрейта : Постоянный
Битрейт : 192 Кбит/сек
Каналы : 2 канала
Расположение каналов : Front: L R
Частота : 48,0 КГц
Частота кадров : 31,250 кадров/сек (1536 spf)
Метод сжатия : С потерями
Размер потока : 65,8 Мбайт (11%)
Выравнивание : Разделение по промежуткам
Продолжительность промежутка : 40 мс. (1,00 видеокадр)
Время предзагрузки промежутка : 500 мс.
скриншот  скриншот  скриншот  скриншот  
pb.wtf



Скачать Замуж после всех через торрент http://pic1.kartinco.top/images/11/arw3m.jpg Скачать фильм Замуж после всех через торрент бесплантно в хорошем качестве Описание: Лене Крапивиной далеко за тридцать, и она отчаянно хочет замуж, но очередной жених сбегает из-под венца. Уже несколько попыток ... 8.8 10 9
Торрент: Зарегистрирован [2016-11-21 11:18] · скачан: 83 раз
Статус: √ проверено
Размер: 2.32 GB
Как cкачать? Как скачать Замуж после всех через торрент | qTorrent

28-11-2019 20:33  

Отключить всю рекламу на сайте

    Дорогой пользователь! Огромная просьба, поблагодарите релизера, оцените раздачу и оставьте свои комментарий, если Вы скачали Замуж после всех через торрент бесплатно! Внесите свою лепту в развитие PiratBit!
    Комментировать посты могут только пользователи прошедшие не сложную регистрацию
    Показать сообщения:    

    Замуж после всех через торрент
    Скачать бесплатно Замуж после всех
    Замуж после всех скачать торрент
    Замуж после всех смотреть онлайн
    Cкачать фильм Замуж после всех бесплатно
    Замуж после всех скачать торрент в хорошем качестве
    Замуж после всех смотреть онлайн бесплатно в хорошем качестве


    Вы не можете начинать темы
    Вы не можете отвечать на сообщения
    Вы не можете редактировать свои сообщения
    Вы не можете удалять свои сообщения
    Вы не можете голосовать в опросах
    Вы не можете прикреплять файлы к сообщениям
    Вы можете скачивать файлы