Ссылка на приватное зеркало нашего сайта всего за 1$. Внимание количество ограничено!!!

2 сезон

iTunes

1 сезон

1

iTunes

iTunes

iTunes

1 сезон

RePack

30

ИГРА 18+

pack

ВАЖНО

!!Акция!!

Alien_RageХит недели

RePack

MK11
pack

Забери бонус

RePack

jed

!!Акция!!

Alien_Rage

RePack

fifa19

RePack

Assassins Creed: Odyssey

RePack

NEED FOR SPEED™ PAYBACK

4 сезон

9 сезон

Бесстыжие 9 сезон

Все сериалы

все сериалы на PB.wtf

RePack

FAR CRY 5
  

Бункер / La cara oculta (Андрес Баиз) [2011, триллер, драма, детектив, BDRip 720p by msltel] MVO pb.wtf

Бункер через торрент pb.wtf

Размер: 2.93 GB | Добавлен: 3 года 11 мес. назад | Торрент скачан:258 раз
Скачать  

21-11-2016 12:27 Бункер Скачать торрент  

Название: Бункер
Оригинальное название: La cara oculta
Год выпуска: 2011
Страна: Колумбия, Испания
Жанр: триллер, драма, детектив
Продолжительность: 01:36:31
Перевод: профессиональный многоголосый

Режиссёр: Андрес Баиз

В ролях: Клара Лаго, Ким Гутьеррес, Мартина Гарсиа, Хуан Альфонсо Баптиста, Марсела Бенхумеа, Марсела Мар Умберто Дорадо, Хосе Луис Гарсиа, Марсела Гардеазабаль, Мозад, Мария Соледад Родригез

Описание: Официантка Фабиана знакомится с одним из случайных посетителей, переживающим сложный период в жизни. Между ними вспыхивает страсть. Для девушки всё кажется идеальным: её любимый работает дирижёром оркестра филармонии в Боготе и владеет огромным особняком. Однако вскоре появляются непредвиденные сложности. Полиция расследует таинственное исчезновение бывшей невесты и подруги дирижёра, а сама девушка начинает чувствовать, что в доме происходит нечто странное...



Качество: BDRip 720p Сравнение с исходником
Формат: MKV
Видео: MPEG-4 AVC, 3468 Кбит/с, 1280x546, 24 кадра/с
Аудио 1: русский, AC3, 448 kbps, 6 ch, 48 kHz [профессиональный многоголосый, R5]
Аудио 2: испанский, AC3, 448 kbps, 6 ch, 48 kHz [оригинал]
Субтитры 1: русские
Субтитры 2: английские
Имеются неименованные главы/чаптеры.
frame I:987 Avg QP:15.73 size: 94291
frame P:25289 Avg QP:16.65 size: 36848
frame B:112216 Avg QP:18.91 size: 13155
Общее
Уникальный идентификатор : 215975126600646021426080344876163895101 (0xA27B4BDE01AC13E3A997D2A290CD8F3D)
Полное имя : D:\Video\Бункер.2011.BDRip.720p by msltel.mkv
Формат : Matroska
Версия формата : Version 4 / Version 2
Размер файла : 2,93 Гбайт
Продолжительность : 1 ч. 36 м.
Общий поток : 4365 Кбит/сек
Название фильма : Rip by msltel
Дата кодирования : UTC 2016-11-21 04:52:59
Программа кодирования : mkvmerge v8.2.0 ('World of Adventure') 64bit
Библиотека кодирования : libebml v1.3.1 + libmatroska v1.4.2

Видео
Идентификатор : 1
Формат : AVC
Формат/Информация : Advanced Video Codec
Профиль формата : High@L4.1
Параметр CABAC формата : Да
Параметр ReFrames формата : 9 кадров
Идентификатор кодека : V_MPEG4/ISO/AVC
Продолжительность : 1 ч. 36 м.
Битрейт : 3468 Кбит/сек
Ширина : 1280 пикселей
Высота : 546 пикселей
Соотношение сторон : 2,35:1
Режим частоты кадров : Постоянный
Частота кадров : 24,000 кадра/сек
Цветовое пространство : YUV
Субдискретизация насыщенности : 4:2:0
Битовая глубина : 8 бит
Тип развёртки : Прогрессивная
Бит/(Пиксели*Кадры) : 0.207
Размер потока : 2,33 Гбайт (79%)
Библиотека кодирования : x264 core 146 r2538 121396c
Настройки программы : cabac=1 / ref=9 / deblock=1:-3:-3 / analyse=0x3:0x113 / me=umh / subme=9 / psy=1 / psy_rd=1.00:0.15 / mixed_ref=1 / me_range=32 / chroma_me=1 / trellis=1 / 8x8dct=1 / cqm=0 / deadzone=21,11 / fast_pskip=0 / chroma_qp_offset=-3 / threads=6 / lookahead_threads=1 / sliced_threads=0 / nr=0 / decimate=1 / interlaced=0 / bluray_compat=0 / constrained_intra=0 / bframes=12 / b_pyramid=2 / b_adapt=2 / b_bias=0 / direct=1 / weightb=1 / open_gop=0 / weightp=2 / keyint=230 / keyint_min=23 / scenecut=40 / intra_refresh=0 / rc_lookahead=40 / rc=crf / mbtree=0 / crf=19.5 / qcomp=0.60 / qpmin=0 / qpmax=69 / qpstep=4 / vbv_maxrate=50000 / vbv_bufsize=62500 / crf_max=0.0 / nal_hrd=none / filler=0 / ip_ratio=1.40 / pb_ratio=1.30 / aq=1:1.00
Язык : Spanish
Default : Да
Forced : Нет

Аудио #1
Идентификатор : 2
Формат : AC-3
Формат/Информация : Audio Coding 3
Расширение режима : CM (complete main)
Параметр Endianness формата : Big
Идентификатор кодека : A_AC3
Продолжительность : 1 ч. 36 м.
Вид битрейта : Постоянный
Битрейт : 448 Кбит/сек
Каналы : 6 каналов
Расположение каналов : Front: L C R, Side: L R, LFE
Частота : 48,0 КГц
Частота кадров : 31,250 кадров/сек (1536 spf)
Метод сжатия : С потерями
Размер потока : 308 Мбайт (10%)
Заголовок : MVO (R5)
Язык : Russian
Default : Да
Forced : Нет

Аудио #2
Идентификатор : 3
Формат : AC-3
Формат/Информация : Audio Coding 3
Расширение режима : CM (complete main)
Параметр Endianness формата : Big
Идентификатор кодека : A_AC3
Продолжительность : 1 ч. 36 м.
Вид битрейта : Постоянный
Битрейт : 448 Кбит/сек
Каналы : 6 каналов
Расположение каналов : Front: L C R, Side: L R, LFE
Частота : 48,0 КГц
Частота кадров : 31,250 кадров/сек (1536 spf)
Метод сжатия : С потерями
Размер потока : 308 Мбайт (10%)
Заголовок : original
Язык : Spanish
Default : Нет
Forced : Нет

Текст #1
Идентификатор : 4
Формат : UTF-8
Идентификатор кодека : S_TEXT/UTF8
Идентификатор кодека/Информация : UTF-8 Plain Text
Продолжительность : 1 ч. 27 м.
Битрейт : 51 бит/сек
Count of elements : 659
Размер потока : 33,2 Кбайт (0%)
Заголовок : русские
Язык : Russian
Default : Нет
Forced : Нет

Текст #2
Идентификатор : 5
Формат : UTF-8
Идентификатор кодека : S_TEXT/UTF8
Идентификатор кодека/Информация : UTF-8 Plain Text
Продолжительность : 1 ч. 35 м.
Битрейт : 28 бит/сек
Count of elements : 769
Размер потока : 20,0 Кбайт (0%)
Заголовок : английские
Язык : English
Default : Нет
Forced : Нет

Меню
00:00:00.000 : :Chapter 01
00:08:16.083 : :Chapter 02
00:16:01.291 : :Chapter 03
00:24:15.083 : :Chapter 04
00:31:48.833 : :Chapter 05
00:40:34.000 : :Chapter 06
00:48:04.208 : :Chapter 07
00:55:54.125 : :Chapter 08
01:04:22.916 : :Chapter 09
01:12:00.500 : :Chapter 10
01:20:31.416 : :Chapter 11
01:28:07.333 : :Chapter 12

МОИ РЕЛИЗЫ
ВКОНТАКТЕ
pb.wtf



Скачать Бункер через торрент http://s018.radikal.ru/i511/1611/ba/f8090b89f923.jpg Скачать фильм Бункер через торрент бесплантно в хорошем качестве Описание: Официантка Фабиана знакомится с одним из случайных посетителей, переживающим сложный период в жизни. Между ними вспыхивает ... 8.5 10 8
Info! Золотая раздача, скачанное не засчитывается.
Торрент: Зарегистрирован [2016-11-21 12:27] · скачан: 258 раз
Статус: √ проверено
Размер: 2.93 GB
Как cкачать? Как скачать Бункер через торрент | qTorrent

% Раздел Тема Автор DL S | L
Фильмы [HD 720p, 1080p] (Хороший звук DUB, MVO) [ 8.09 GB ] Бункер / La cara oculta [2011 BDRip 1080p by msltel] MVO msltel Скачать
1 | 0

28-11-2019 20:33  

Отключить всю рекламу на сайте

    Дорогой пользователь! Огромная просьба, поблагодарите релизера, оцените раздачу и оставьте свои комментарий, если Вы скачали Бункер через торрент бесплатно! Внесите свою лепту в развитие PiratBit!
    Комментировать посты могут только пользователи прошедшие не сложную регистрацию
    Показать сообщения:    

    Бункер через торрент
    Скачать бесплатно Бункер
    Бункер скачать торрент
    Бункер смотреть онлайн
    Cкачать фильм Бункер бесплатно
    Бункер скачать торрент в хорошем качестве
    Бункер смотреть онлайн бесплатно в хорошем качестве


    Вы не можете начинать темы
    Вы не можете отвечать на сообщения
    Вы не можете редактировать свои сообщения
    Вы не можете удалять свои сообщения
    Вы не можете голосовать в опросах
    Вы не можете прикреплять файлы к сообщениям
    Вы можете скачивать файлы