Наша группа ВК в очередной раз забанена мы уходим в Телеграм, присоединяйтесь!!!

Лицензия

30

iTunes

мы

iTunes

1

1 сезон

Чернобыль

iTunes

1+1

iTunes

Закатать в асфальт

8 сезон

Игра престолов

1 сезон

Ральф против интернета

ИГРА 18+

pack

ВАЖНО

!!Акция!!

Alien_RageХит недели

RePack

Resident Evil 21
pack

RePack

Metro:Exodus

!!Акция!!

Alien_Rage

RePack

fifa19

RePack

Assassins Creed: Odyssey

RePack

NEED FOR SPEED™ PAYBACK

3 сезон

9 сезон

Бесстыжие 9 сезон

Все сериалы

все сериалы на PB.wtf

RePack

FAR CRY 5
Ребята, катастрофически не хватает 2730р. для оплаты серверов за АПРЕЛЬ (всвязи с блокировками трафик упал в 3 раза), 1-2р., выручайте.
  

Одноглазые валеты / One-Eyed Jacks (Марлон Брандо) [1961 г., вестерн, BDRip] MVO pb.wtf

Одноглазые валеты через торрент pb.wtf

Размер: 2.18 GB | Добавлен: 2 года 6 мес. назад | Торрент скачан:41 раз
Скачать  

21-11-2016 19:01 Одноглазые валеты Скачать торрент  

Одноглазые валеты / One-Eyed Jacks
Год выпуска: 1961
Страна: США
Жанр: вестерн
Продолжительность: 02:21:23
Перевод: Профессиональный (многоголосый)

Режиссер: Марлон Брандо

rating

В ролях: Марлон Брандо, Карл Молден, Кэти Хурадо, Пина Пеллисер, Бен Джонсон, Слим Пикенс, Ларри Дюран, Сэм Гилман, Тимоти Кэри, Мириам Колон, Элиша Кук мл., Родольфо Акоста, Джоан Петроун, Том Уэбб, Рэй Тил, Джон Диркес, Филип Ан, Маргарита Кордова, Хэнк Уорден, Клем Харви, Уильям Форрест, Мина Мартинез

Описание: Рио и Папаша - бандиты. В 1880 году они грабят банк в Мексике, но уходить от погони им приходится на одной лошади. Понимая, что на одной лошади им не оторваться, Рио посылает Папашу найти вторую лошадь, пока он будет отстреливаться от отряда погони. Папаша, однако, оставляет попытки найти вторую лошадь и уезжает прочь вместе с добычей. Рио, естественно, поймали, когда у него закончились патроны, и он попадает в тюрьму. Через пять лет зверского обращения пленнику удается бежать и снова встретиться с Папашей, все таким же вероломным и опасным человеком, но теперь ставшим шерифом в небольшом городке и живущим вместе с женой и падчерицей. Папаша, конечно, понимает, что Рио приехал не для того, чтобы поздравить его с Днем Отца, и принимает меры, чтобы защититься от обуреваемого жаждой мести Рио...

Качество: BDRip (One-Eyed.Jacks.1961.REPACK.1080p.BluRay.REMUX.AVC.FLAC.1.0-EPSiLON)
Формат: AVI
Видео кодек: XviD
Аудио кодек: AC3
Видео: XviD, 1810 Кбит/с, 720x384, 23.976 кадр/с
Аудио#1: AC3, 2 ch, 192 Кбит/с, 48 kHz | Русский
Аудио#2: AC3, 1 ch, 192 Кбит/с, 48 kHz | Aнглийский
Релиз от: Koenig
Общее
Полное имя : One.Eyed.Jacks.1961.BDRip.avi
Формат : AVI
Формат/Информация : Audio Video Interleave
Профиль формата : OpenDML
Размер файла : 2,18 Гбайт
Продолжительность : 2 ч. 21 м.
Общий поток : 2212 Кбит/сек
Программа кодирования : VirtualDubMod 1.5.10.2 (build 2540/release)
Библиотека кодирования : VirtualDubMod build 2540/release

Видео
Идентификатор : 0
Формат : MPEG-4 Visual
Профиль формата : Advanced Simple@L5
Параметр BVOP формата : 1
Параметр QPel формата : Нет
Параметр GMC формата : Без точки перехода
Параметр матрицы формата : Выборочная
Идентификатор кодека : XVID
Идентификатор кодека/Подсказка : XviD
Продолжительность : 2 ч. 21 м.
Битрейт : 1810 Кбит/сек
Ширина : 720 пикселей
Высота : 384 пикселя
Соотношение сторон : 1,85:1
Частота кадров : 23,976 (24000/1001) кадра/сек
Частота кадров в оригинале : 23,976 (23976/1000) кадра/сек
Цветовое пространство : YUV
Субдискретизация насыщенности : 4:2:0
Битовая глубина : 8 бит
Тип развёртки : Прогрессивная
Метод сжатия : С потерями
Бит/(Пиксели*Кадры) : 0.273
Размер потока : 1,79 Гбайт (82%)
Библиотека кодирования : XviD 73

Аудио #1
Идентификатор : 1
Формат : AC-3
Формат/Информация : Audio Coding 3
Расширение режима : CM (complete main)
Параметр Endianness формата : Big
Идентификатор кодека : 2000
Продолжительность : 2 ч. 21 м.
Вид битрейта : Постоянный
Битрейт : 192 Кбит/сек
Каналы : 2 канала
Расположение каналов : Front: L R
Частота : 48,0 КГц
Частота кадров : 31,250 кадров/сек (1536 spf)
Битовая глубина : 16 бит
Метод сжатия : С потерями
Размер потока : 194 Мбайт (9%)
Выравнивание : Разделение по промежуткам
Продолжительность промежутка : 42 мс. (1,00 видеокадр)
Время предзагрузки промежутка : 500 мс.

Аудио #2
Идентификатор : 2
Формат : AC-3
Формат/Информация : Audio Coding 3
Расширение режима : CM (complete main)
Параметр Endianness формата : Big
Идентификатор кодека : 2000
Продолжительность : 2 ч. 21 м.
Вид битрейта : Постоянный
Битрейт : 192 Кбит/сек
Каналы : 1 канал
Расположение каналов : Front: C
Частота : 48,0 КГц
Частота кадров : 31,250 кадров/сек (1536 spf)
Битовая глубина : 16 бит
Метод сжатия : С потерями
Размер потока : 194 Мбайт (9%)
Выравнивание : Разделение по промежуткам
Продолжительность промежутка : 42 мс. (1,00 видеокадр)
Время предзагрузки промежутка : 500 мс
pb.wtf



Скачать Одноглазые валеты через торрент http://pic1.kartinco.top/images/11/85uom.jpg Скачать фильм Одноглазые валеты через торрент бесплантно в хорошем качестве Описание: Рио и Папаша - бандиты. В 1880 году они грабят банк в Мексике, но уходить от погони им приходится на одной лошади. Понимая, что ... 10 10 4
Info! Золотая раздача, скачанное не засчитывается.
Торрент: Зарегистрирован [2016-11-21 19:01] · скачан: 41 раз
Статус: √ проверено
Размер: 2.18 GB
Как cкачать? Как скачать Одноглазые валеты через торрент | qTorrent

% Раздел Тема Автор DL S | L
Фильмы [HD 720p, 1080p] (Хороший звук DUB, MVO) [ 6.48 GB ] Одноглазые валеты / One-Eyed Jacks [1961 BDRip 720p by msltel] MVO msltel Скачать
1 | 0
Фильмы [HD 720p, 1080p] (Хороший звук DUB, MVO) [ 16.9 GB ] Одноглазые валеты / One-Eyed Jacks [1961 BDRip 1080p by msltel] MVO msltel Скачать
1 | 0
Фильмы [HD 720p, 1080p] (Хороший звук DUB, MVO) [ 6.74 GB ] Одноглазые валеты / One-Eyed Jacks [1961 BDRip 720p] MVO koenig Скачать
1 | 0


>> Регистрируемся здесь <<






Отзывы и комментарии о схеме читаем и пишем здесь: ---> Отзывы и комментарии о схеме

Новые благодарочки в телеграм довольных пользователей:
скриншот   скриншот   скриншот   скриншот   скриншот

27-06-2017 16:24 Одноглазые валеты Скачать торрент  

шедеврально!pb.wtf



    Дорогой пользователь! Огромная просьба, поблагодарите релизера, оцените раздачу и оставьте свои комментарий, если Вы скачали Одноглазые валеты через торрент бесплатно! Внесите свою лепту в развитие PiratBit!
    Комментировать посты могут только пользователи прошедшие не сложную регистрацию
    Показать сообщения:    

    Одноглазые валеты через торрент
    Скачать бесплатно Одноглазые валеты
    Одноглазые валеты скачать торрент
    Одноглазые валеты смотреть онлайн
    Cкачать фильм Одноглазые валеты бесплатно
    Одноглазые валеты скачать торрент в хорошем качестве
    Одноглазые валеты смотреть онлайн бесплатно в хорошем качестве


    Вы не можете начинать темы
    Вы не можете отвечать на сообщения
    Вы не можете редактировать свои сообщения
    Вы не можете удалять свои сообщения
    Вы не можете голосовать в опросах
    Вы не можете прикреплять файлы к сообщениям
    Вы можете скачивать файлы