Ссылка на приватное зеркало нашего сайта всего за 1$. Внимание количество ограничено!!!

2 сезон

iTunes

1 сезон

1

iTunes

iTunes

iTunes

1 сезон

RePack

30

ИГРА 18+

pack

ВАЖНО

!!Акция!!

Alien_RageХит недели

RePack

MK11
pack

Забери бонус

RePack

jed

!!Акция!!

Alien_Rage

RePack

fifa19

RePack

Assassins Creed: Odyssey

RePack

NEED FOR SPEED™ PAYBACK

4 сезон

9 сезон

Бесстыжие 9 сезон

Все сериалы

все сериалы на PB.wtf

RePack

FAR CRY 5
  

Одноглазые валеты / One-Eyed Jacks (Марлон Брандо) [1961 г., вестерн, BDRip 720p] MVO pb.wtf

Одноглазые валеты через торрент pb.wtf

Размер: 6.74 GB | Добавлен: 3 года 11 мес. назад | Торрент скачан:42 раза
Скачать  

21-11-2016 19:09 Одноглазые валеты Скачать торрент  

Одноглазые валеты / One-Eyed Jacks
Год выпуска: 1961
Страна: США
Жанр: вестерн
Продолжительность: 02:21:23
Перевод: Профессиональный (многоголосый)
Субтитры: Английские

Режиссер: Марлон Брандо

rating

В ролях: Марлон Брандо, Карл Молден, Кэти Хурадо, Пина Пеллисер, Бен Джонсон, Слим Пикенс, Ларри Дюран, Сэм Гилман, Тимоти Кэри, Мириам Колон, Элиша Кук мл., Родольфо Акоста, Джоан Петроун, Том Уэбб, Рэй Тил, Джон Диркес, Филип Ан, Маргарита Кордова, Хэнк Уорден, Клем Харви, Уильям Форрест, Мина Мартинез

Описание: Рио и Папаша - бандиты. В 1880 году они грабят банк в Мексике, но уходить от погони им приходится на одной лошади. Понимая, что на одной лошади им не оторваться, Рио посылает Папашу найти вторую лошадь, пока он будет отстреливаться от отряда погони. Папаша, однако, оставляет попытки найти вторую лошадь и уезжает прочь вместе с добычей. Рио, естественно, поймали, когда у него закончились патроны, и он попадает в тюрьму. Через пять лет зверского обращения пленнику удается бежать и снова встретиться с Папашей, все таким же вероломным и опасным человеком, но теперь ставшим шерифом в небольшом городке и живущим вместе с женой и падчерицей. Папаша, конечно, понимает, что Рио приехал не для того, чтобы поздравить его с Днем Отца, и принимает меры, чтобы защититься от обуреваемого жаждой мести Рио...

Качество: BDRip 720p (DEPTH)
Формат: MKV
Видео кодек: H.264
Аудио кодек: AC3
Видео: MPEG-4 AVC, 6021 Кбит/с, 1280x688, 23.976 кадр/с
Аудио#1: AC3, 2 ch, 192 Кбит/с, 48 kHz | Русский
Аудио#2: FLAC, 1 ch, 611 Кбит/с, 48 kHz | Aнглийский
Релиз от: Koenig
Общее
Уникальный идентификатор : 196289306694993847754880155873419773621 (0x93ABF202A24620908EAD7B4E0F10C6B5)
Полное имя : One.Eyed.Jacks.1961.BDRip.720p.mkv
Формат : Matroska
Версия формата : Version 4 / Version 2
Размер файла : 6,74 Гбайт
Продолжительность : 2 ч. 21 м.
Режим общего битрейта : Переменный
Общий поток : 6826 Кбит/сек
Название фильма : One-Eyed Jacks
Дата кодирования : UTC 2016-11-21 06:23:04
Программа кодирования : mkvmerge v9.2.0 ('Photograph') 32bit
Библиотека кодирования : libebml v1.3.3 + libmatroska v1.4.4
Обложка : Yes
Attachments : cover.jpg

Видео
Идентификатор : 1
Формат : AVC
Формат/Информация : Advanced Video Codec
Профиль формата : High@L4.1
Параметр CABAC формата : Да
Параметр ReFrames формата : 5 кадров
Идентификатор кодека : V_MPEG4/ISO/AVC
Продолжительность : 2 ч. 21 м.
Битрейт : 6021 Кбит/сек
Ширина : 1280 пикселей
Высота : 688 пикселей
Соотношение сторон : 1,85:1
Режим частоты кадров : Постоянный
Частота кадров : 23,976 (24000/1001) кадра/сек
Цветовое пространство : YUV
Субдискретизация насыщенности : 4:2:0
Битовая глубина : 8 бит
Тип развёртки : Прогрессивная
Бит/(Пиксели*Кадры) : 0.285
Размер потока : 5,95 Гбайт (88%)
Заголовок : One-Eyed Jacks
Библиотека кодирования : x264 core 148 r2721 72d53ab
Настройки программы : cabac=1 / ref=5 / deblock=1:-3:-3 / analyse=0x3:0x113 / me=umh / subme=8 / psy=1 / psy_rd=1.00:0.00 / mixed_ref=1 / me_range=16 / chroma_me=1 / trellis=1 / 8x8dct=1 / cqm=0 / deadzone=21,11 / fast_pskip=1 / chroma_qp_offset=-2 / threads=21 / lookahead_threads=3 / sliced_threads=0 / nr=0 / decimate=1 / interlaced=0 / bluray_compat=0 / constrained_intra=0 / bframes=3 / b_pyramid=2 / b_adapt=1 / b_bias=0 / direct=3 / weightb=1 / open_gop=0 / weightp=2 / keyint=240 / keyint_min=24 / scenecut=40 / intra_refresh=0 / rc_lookahead=50 / rc=2pass / mbtree=1 / bitrate=6021 / ratetol=1.0 / qcomp=0.60 / qpmin=0 / qpmax=69 / qpstep=4 / cplxblur=20.0 / qblur=0.5 / ip_ratio=1.40 / aq=1:1.00
Default : Да
Forced : Нет

Аудио #1
Идентификатор : 2
Формат : AC-3
Формат/Информация : Audio Coding 3
Расширение режима : CM (complete main)
Параметр Endianness формата : Big
Идентификатор кодека : A_AC3
Продолжительность : 2 ч. 21 м.
Вид битрейта : Постоянный
Битрейт : 192 Кбит/сек
Каналы : 2 канала
Расположение каналов : Front: L R
Частота : 48,0 КГц
Частота кадров : 31,250 кадров/сек (1536 spf)
Битовая глубина : 16 бит
Метод сжатия : С потерями
Размер потока : 194 Мбайт (3%)
Заголовок : MVO
Язык : Russian
Default : Да
Forced : Нет

Аудио #2
Идентификатор : 3
Формат : FLAC
Формат/Информация : Free Lossless Audio Codec
Идентификатор кодека : A_FLAC
Продолжительность : 2 ч. 21 м.
Вид битрейта : Переменный
Битрейт : 611 Кбит/сек
Каналы : 1 канал
Расположение каналов : Front: C
Частота : 48,0 КГц
Частота кадров : 11,719 кадров/сек (4096 spf)
Битовая глубина : 24 бит
Размер потока : 618 Мбайт (9%)
Библиотека кодирования : libFLAC 1.2.1 (UTC 2007-09-17)
Язык : English
Default : Нет
Forced : Нет

Текст #1
Идентификатор : 4
Формат : UTF-8
Идентификатор кодека : S_TEXT/UTF8
Идентификатор кодека/Информация : UTF-8 Plain Text
Продолжительность : 2 ч. 17 м.
Битрейт : 45 бит/сек
Count of elements : 1397
Размер потока : 45,4 Кбайт (0%)
Заголовок : Regular
Язык : English
Default : Нет
Forced : Нет

Текст #2
Идентификатор : 5
Формат : UTF-8
Идентификатор кодека : S_TEXT/UTF8
Идентификатор кодека/Информация : UTF-8 Plain Text
Продолжительность : 2 ч. 18 м.
Битрейт : 48 бит/сек
Count of elements : 1516
Размер потока : 48,6 Кбайт (0%)
Заголовок : SDH
Язык : English
Default : Нет
Forced : Нет

Меню
00:00:00.000 : en:00:00:00.000
00:05:18.693 : en:00:05:18.693
00:10:55.238 : en:00:10:55.238
00:16:02.170 : en:00:16:02.170
00:21:47.681 : en:00:21:47.681
00:31:58.083 : en:00:31:58.083
00:35:51.066 : en:00:35:51.066
00:42:29.255 : en:00:42:29.255
00:48:07.218 : en:00:48:07.218
00:53:08.227 : en:00:53:08.227
01:01:27.475 : en:01:01:27.475
01:07:17.533 : en:01:07:17.533
01:12:34.725 : en:01:12:34.725
01:17:14.421 : en:01:17:14.421
01:22:14.972 : en:01:22:14.972
01:25:38.800 : en:01:25:38.800
01:33:17.133 : en:01:33:17.133
01:41:05.810 : en:01:41:05.810
01:48:51.859 : en:01:48:51.859
01:52:54.726 : en:01:52:54.726
01:58:04.494 : en:01:58:04.494
02:06:51.938 : en:02:06:51.938
02:14:42.908 : en:02:14:42.908

pb.wtf



Скачать Одноглазые валеты через торрент http://pic1.kartinco.top/images/11/85uom.jpg Скачать фильм Одноглазые валеты через торрент бесплантно в хорошем качестве Описание: Рио и Папаша - бандиты. В 1880 году они грабят банк в Мексике, но уходить от погони им приходится на одной лошади. Понимая, что ... 10 10 2
Info! Золотая раздача, скачанное не засчитывается.
Торрент: Зарегистрирован [2016-11-21 19:09] · скачан: 42 раз
Статус: √ проверено
Размер: 6.74 GB
Как cкачать? Как скачать Одноглазые валеты через торрент | qTorrent

% Раздел Тема Автор DL S | L
Фильмы [HD 720p, 1080p] (Хороший звук DUB, MVO) [ 6.48 GB ] Одноглазые валеты / One-Eyed Jacks [1961 BDRip 720p by msltel] MVO msltel Скачать
1 | 0
Фильмы [HD 720p, 1080p] (Хороший звук DUB, MVO) [ 16.9 GB ] Одноглазые валеты / One-Eyed Jacks [1961 BDRip 1080p by msltel] MVO msltel Скачать
1 | 0
Классика зарубежного кино [ 2.18 GB ] Одноглазые валеты / One-Eyed Jacks [1961 BDRip] MVO koenig Скачать
1 | 0

28-11-2019 20:33  

Отключить всю рекламу на сайте

    Дорогой пользователь! Огромная просьба, поблагодарите релизера, оцените раздачу и оставьте свои комментарий, если Вы скачали Одноглазые валеты через торрент бесплатно! Внесите свою лепту в развитие PiratBit!
    Комментировать посты могут только пользователи прошедшие не сложную регистрацию
    Показать сообщения:    

    Одноглазые валеты через торрент
    Скачать бесплатно Одноглазые валеты
    Одноглазые валеты скачать торрент
    Одноглазые валеты смотреть онлайн
    Cкачать фильм Одноглазые валеты бесплатно
    Одноглазые валеты скачать торрент в хорошем качестве
    Одноглазые валеты смотреть онлайн бесплатно в хорошем качестве


    Вы не можете начинать темы
    Вы не можете отвечать на сообщения
    Вы не можете редактировать свои сообщения
    Вы не можете удалять свои сообщения
    Вы не можете голосовать в опросах
    Вы не можете прикреплять файлы к сообщениям
    Вы можете скачивать файлы